[Login] or [Signup]
Login
Username:
Password:
[Signup]
[Recover Account]


Poll


You must be logged in to view polls



Torrent Details For "Shazam 2019 720p HDCAM x264 Dual Audio [Hindi - English] [MW]"

Shazam 2019 720p HDCAM x264 Dual Audio [Hindi - English] [MW]

Download this torrent | Magnet Download
Health:
Seeds: 261
Leechers: 47
Completed: 20,399 
Last Checked: 24-04-2019 10:36:28
External Torrent
Update Stats
Download Magnet


Poster


iMDB
Title: Shazam!
Year: 2019
Runtime: 132 minutes
Votes: 12216
Rating: 8.0/10
Language: English
Tagline: If you want to save the world, say the magic word.
Director: David F. Sandberg
Writing By: Henry Gayden,Henry Gayden,Darren Lemke,Bill Parker,C.C. Beck,
Produced By: Jeffrey Chernov,Dany Garcia,Hiram Garcia,Geoff Johns,Dwayne Johnson,Peter Safran,David Witz,
Music: Benjamin Wallfisch
Cast:
Zachary Levi as Shazam
Djimon Hounsou as The Wizard Shazam
Mark Strong as Dr. Thaddeus Sivana
Jack Dylan Grazer as Freddy Freeman
Asher Angel as Billy Batson
Marta Milans as Rosa Vasquez
Grace Fulton as Mary Bromfield
Stephannie Hawkins as Bus Passenger #6
Cooper Andrews as Victor Vasquez
Lovina Yavari as Store Clerk
Trailers:
Official Trailer #2
Trailer #2
Official Teaser Trailer


Watch-Free-HD     Download

Details
Name:Shazam 2019 720p HDCAM x264 Dual Audio [Hindi - English] [MW]
Description:

 


General
Format                                   : Matroska
Format version                           : Version 4
File size                                : 1.24 GiB
Duration                                 : 2 h 1 min
Overall bit rate                         : 1 461 kb/s

Video
ID                                       : 1
Format                                   : AVC
Format/Info                              : Advanced Video Codec
Format profile                           : [email protected]
Format settings                          : CABAC / 4 Ref Frames
Format settings, CABAC                   : Yes
Format settings, RefFrames               : 4 frames
Codec ID                                 : V_MPEG4/ISO/AVC
Duration                                 : 2 h 1 min
Bit rate                                 : 1 200 kb/s
Width                                    : 1 280 pixels
Height                                   : 532 pixels
Display aspect ratio                     : 2.40:1
Frame rate mode                          : Constant
Frame rate                               : 29.970 (30000/1001) FPS
Color space                              : YUV
Chroma subsampling                       : 4:2:0
Bit depth                                : 8 bits
Scan type                                : Progressive
Bits/(Pixel*Frame)                       : 0.059
Stream size                              : 1.02 GiB (82%)
Writing library                          : x264 core 157 r2935 545de2f

Audio #1
ID                                       : 2
Format                                   : AAC LC
Codec ID                                 : A_AAC-2
Duration                                 : 2 h 1 min
Bit rate                                 : 128 kb/s
Channel(s)                               : 2 channels
Channel layout                           : L R
Sampling rate                            : 48.0 kHz
Frame rate                               : 46.875 FPS (1024 SPF)
Compression mode                         : Lossy
Stream size                              : 111 MiB (9%)
Language                                 : Hindi
Default                                  : No
Forced                                   : No

Audio #2
ID                                       : 3
Format                                   : AAC LC
Codec ID                                 : A_AAC-2
Duration                                 : 2 h 1 min
Bit rate                                 : 128 kb/s
Channel(s)                               : 2 channels
Channel layout                           : L R
Sampling rate                            : 48.0 kHz
Frame rate                               : 46.875 FPS (1024 SPF)
Compression mode                         : Lossy
Stream size                              : 112 MiB (9%)
Language                                 : English
Default                                  : No
Forced                                   : No


Click To View Image

 https://pichub.site/image/wUYU5
 https://pichub.site/image/wUa9h
 https://pichub.site/image/wUORj
 https://pichub.site/image/wUSXk
 https://pichub.site/image/wURKr
 https://pichub.site/image/wUEJQ

Category:Movies > Hollywood Dub
Lang:Hindi
Total Size:1.24 GB
Info Hash:39fe8a748a2bdb21b6122afb5c86041c2ea6985f
Added By:Freaky
Date Added:06-04-2019 08:03:27
Views:5,092
Hits:397

Download Torrent

Ratings:Not Yet Rated (Log in to rate it)


Tracker:
udp://tracker.coppersurfer.tk:6969/announce


File List: 


Comments

No comments still posted

Powered by 10 Hamsters v2-svn -|- Page Generated In 0.167627 secs.
-|- RSS FEED
Theme By: Nikkbu