[Login] or [Signup]
Login
Username:
Password:
[Signup]
[Recover Account]


Poll


You must be logged in to view polls



Torrent Details For "Hornet 2018 1080p BluRay x264 DTS [MW]"

Hornet 2018 1080p BluRay x264 DTS [MW]

Download this torrent | Magnet Download
Health:
Seeds: 0
Leechers: 1
Completed:
Last Checked: 19-05-2019 14:06:15
External Torrent
Update Stats


Poster
No poster


Details
Name:Hornet 2018 1080p BluRay x264 DTS [MW]
Description:

 


General
Format                                   : Matroska
Format version                           : Version 4
File size                                : 2.23 GiB
Duration                                 : 1 h 25 min
Overall bit rate                         : 3 710 kb/s

Video
ID                                       : 1
Format                                   : AVC
Format/Info                              : Advanced Video Codec
Format profile                           : [email protected]
Format settings                          : CABAC / 4 Ref Frames
Format settings, CABAC                   : Yes
Format settings, RefFrames               : 4 frames
Codec ID                                 : V_MPEG4/ISO/AVC
Duration                                 : 1 h 25 min
Bit rate                                 : 3 000 kb/s
Width                                    : 1 920 pixels
Height                                   : 1 080 pixels
Display aspect ratio                     : 16:9
Frame rate mode                          : Constant
Frame rate                               : 23.976 (24000/1001) FPS
Color space                              : YUV
Chroma subsampling                       : 4:2:0
Bit depth                                : 8 bits
Scan type                                : Progressive
Bits/(Pixel*Frame)                       : 0.060
Stream size                              : 1.76 GiB (79%)
Writing library                          : x264 core 157 r2935 545de2f

Audio
ID                                       : 2
Format                                   : DTS
Format/Info                              : Digital Theater Systems
Codec ID                                 : A_DTS
Duration                                 : 1 h 25 min
Bit rate mode                            : Constant
Bit rate                                 : 768 kb/s
Channel(s)                               : 6 channels
Channel layout                           : C L R Ls Rs LFE
Sampling rate                            : 48.0 kHz
Frame rate                               : 93.750 FPS (512 SPF)
Bit depth                                : 24 bits
Compression mode                         : Lossy
Stream size                              : 472 MiB (21%)
Language                                 : English
Default                                  : Yes
Forced                                   : No


Click To View Image

 https://pichub.site/image/wvuqv
 https://pichub.site/image/wvNyd
 https://pichub.site/image/wvvFu
 https://pichub.site/image/wvU09
 https://pichub.site/image/wv0dR
 https://pichub.site/image/wvLus

Category:Movies > 1080P Bluray
Lang:English  English
Total Size:2.23 GB
Info Hash:fc954c68cee5c3c35065d3a2352a2d389ef04b2b
Added By:Freaky
Date Added:07-04-2019 07:41:51
Views:191
Hits:8

Ratings:Not Yet Rated (Log in to rate it)


Tracker:
udp://tracker.coppersurfer.tk:6969/announce


File List: 


Comments

No comments still posted

Powered by 10 Hamsters v2-svn -|- Page Generated In 0.684178 secs.
-|- RSS FEED
Theme By: Nikkbu