[Login] or [Signup]
Login
Username:
Password:
[Signup]
[Recover Account]


Poll


You must be logged in to view polls



Torrent Details For "Pinky Memsaab.(2018).720p.WEBRip.Urdu.x264.AAC.5.1.ESubs.-.LHDm"

Pinky Memsaab.(2018).720p.WEBRip.Urdu.x264.AAC.5.1.ESubs.-.LHDm

Download this torrent | Magnet Download
Health:
Seeds: 0
Leechers: 0
Completed:
Last Checked: 15-04-2019 15:50:34
External Torrent
Update Stats
Download Magnet


Poster
No poster


Watch-Free-HD     Download

Details
Name:Pinky Memsaab.(2018).720p.WEBRip.Urdu.x264.AAC.5.1.ESubs.-.LHDm
Description:




 https://latesthdmovies.org/pakistani/pinky-memsaab-2018/



General
Unique ID                   : 117805823534158714342515470440380265497 (0x58A093897ED349F607E3DE0E02EC7419)
Complete name               : C:\Users\Administrator\Downloads\Video\[LatestHDmovies.ORg]-Pinky Memsaab.2018.720p.WEBRip.Urdu.x264.AAC.5.1.ESubs.mkv
Format                      : Matroska
Format version              : Version 4
File size                   : 1.24 GiB
Duration                    : 2 h 4 min
Overall bit rate            : 1 421 kb/s
Movie name                  : Pinky Memsaab 2018 -Encoded By  LatestHDmovies.ORg / Pinky Memsaab
Encoded by                  : DDR @ Desitorrents.tv
ContentType                 : Movie
Released date               : 2018-12-13
Encoded date                : UTC 2019-04-14 14:30:55
Writing application         : mkvmerge v32.0.0 ('Astral Progressions') 32-bit
Writing library             : libebml v1.3.7 + libmatroska v1.5.0 / DDR @ Desitorrents.tv
Cover                       : Yes
Comment                     : DDR @ Desitorrents.tv
Attachments                 : cover.jpg
ACTOR                       : Hajira Yamin, Kiran Malik, Adnan Jaffar, Sunny Hinduja, Khalid Ahmed
ARTIST                      : Hajira Yamin, Kiran Malik, Adnan Jaffar, Sunny Hinduja, Khalid Ahmed
DATE_RECORDED               : 2018-12-13
DIRECTOR                    : Shazia Ali Khan
GENRE                       : Drama, Family
SYNOPSIS                    : The lives of a gullible maid; a beautiful socialite; an ambitious investment banker and a happy go lucky chauffeur are entwined together in Dubai, in this bitter-sweet tale of self discovery.

Video
ID                          : 1
Format                      : AVC
Format/Info                 : Advanced Video Codec
Format profile              : [email protected]
Format settings             : CABAC / 1 Ref Frames
Format settings, CABAC      : Yes
Format settings, ReFrames   : 1 frame
Codec ID                    : V_MPEG4/ISO/AVC
Duration                    : 2 h 4 min
Bit rate                    : 1 226 kb/s
Width                       : 1 280 pixels
Height                      : 534 pixels
Display aspect ratio        : 2.40:1
Frame rate mode             : Constant
Frame rate                  : 24.000 FPS
Color space                 : YUV
Chroma subsampling          : 4:2:0
Bit depth                   : 8 bits
Scan type                   : Progressive
Bits/(Pixel*Frame)          : 0.075
Stream size                 : 1.07 GiB (86%)
Title                       : LatestHDmovies.ORg
Writing library             : x264 core 155 r2901 7d0ff22
Default                     : Yes
Forced                      : No
Color range                 : Limited
Color primaries             : BT.709
Transfer characteristics    : BT.709
Matrix coefficients         : BT.709

Audio
ID                          : 2
Format                      : AAC LC
Format/Info                 : Advanced Audio Codec Low Complexity
Codec ID                    : A_AAC-2
Duration                    : 2 h 4 min
Bit rate                    : 192 kb/s
Channel(s)                  : 6 channels
Channel layout              : C L R Ls Rs LFE
Sampling rate               : 48.0 kHz
Frame rate                  : 46.875 FPS (1024 SPF)
Compression mode            : Lossy
Stream size                 : 171 MiB (14%)
Title                       : LatestHDmovies.ORg
Language                    : Urdu
Default                     : Yes
Forced                      : No

Text #1
ID                          : 3
Format                      : UTF-8
Codec ID                    : S_TEXT/UTF8
Codec ID/Info               : UTF-8 Plain Text
Duration                    : 2 h 2 min
Bit rate                    : 32 b/s
Count of elements           : 1091
Stream size                 : 29.1 KiB (0%)
Title                       : LatestHDmovies.ORg
Language                    : English
Default                     : No
Forced                      : No

Text #2
ID                          : 4
Format                      : UTF-8
Codec ID                    : S_TEXT/UTF8
Codec ID/Info               : UTF-8 Plain Text
Duration                    : 1 h 2 min
Bit rate                    : 0 b/s
Count of elements           : 2
Stream size                 : 130 Bytes (0%)
Title                       : LatestHDmovies.ORg
Language                    : English
Default                     : Yes
Forced                      : No

Menu
00:00:00.000                : en:Chapter 1


 
 
 
 
 
Category:Movies > Pakistani
Lang:Urdu
Total Size:1.24 GB
Info Hash:8659ed723595e42102df60ca034c537d878d5c32
Added By:LatestHDMovies
Date Added:15-04-2019 15:50:34
Views:292
Hits:20

Download Torrent

Ratings:Not Yet Rated (Log in to rate it)


Tracker:
udp://tracker.publicbt.com:80/announce

This Torrent also has backup trackers
URLSeedersLeechersCompleted
http://tracker.electro-torrent.pl:80/announce000
http://retracker.mgts.by:80/announce000
http://t.nyaatracker.com:80/announce000
https://bwt.pw/announce.php000


File List: 


Comments

No comments still posted

Powered by 10 Hamsters v2-svn -|- Page Generated In 0.412013 secs.
-|- RSS FEED
Theme By: Nikkbu