[Login] or [Signup]
Login
Username:
Password:
[Signup]
[Recover Account]


Poll


You must be logged in to view polls



Torrent Details For "Maayavan.(2019).720p.WEBRip.Hindi.Dubbed.x264.AAC.-.LHDm"

Maayavan.(2019).720p.WEBRip.Hindi.Dubbed.x264.AAC.-.LHDm

Download this torrent | Magnet Download
Health:
Seeds: 132
Leechers: 48
Completed: 180 
Last Checked: 17-04-2019 12:10:45
External Torrent
Update Stats
Download Magnet


Poster
No poster


Watch-Free-HD     Download

Details
Name:Maayavan.(2019).720p.WEBRip.Hindi.Dubbed.x264.AAC.-.LHDm
Description:




 https://latesthdmovies.org/south-hindi-dubbed/maayavan-2019/



General
Unique ID                   : 196190508289268149700206390583953535334 (0x9398EADF6FFEAE860001BA963E193166)
Complete name               : C:\Users\Administrator\Downloads\Video\[LatestHDmovies.ORg]-Maayavan (2019) 720p WEBRip Hindi Dubbed x264 AAC.mkv
Format                      : Matroska
Format version              : Version 4
File size                   : 1 023 MiB
Duration                    : 1 h 56 min
Overall bit rate            : 1 233 kb/s
Movie name                  : Encoded By LatestHDmovies.ORg
Encoded date                : UTC 2019-04-13 09:14:06
Writing application         : mkvmerge v32.0.0 ('Astral Progressions') 32-bit
Writing library             : libebml v1.3.7 + libmatroska v1.5.0

Video
ID                          : 1
Format                      : AVC
Format/Info                 : Advanced Video Codec
Format profile              : [email protected]
Format settings             : CABAC / 4 Ref Frames
Format settings, CABAC      : Yes
Format settings, ReFrames   : 4 frames
Codec ID                    : V_MPEG4/ISO/AVC
Duration                    : 1 h 56 min
Bit rate                    : 1 100 kb/s
Width                       : 1 280 pixels
Height                      : 544 pixels
Display aspect ratio        : 2.35:1
Frame rate mode             : Constant
Frame rate                  : 25.000 FPS
Color space                 : YUV
Chroma subsampling          : 4:2:0
Bit depth                   : 8 bits
Scan type                   : Progressive
Bits/(Pixel*Frame)          : 0.063
Stream size                 : 915 MiB (89%)
Title                       : LatestHDmovies.ORg
Writing library             : x264 core 152 r2854 e9a5903
Encoding settings           : cabac=1 / ref=1 / deblock=1:0:0 / analyse=0x3:0x3 / me=dia / subme=1 / psy=1 / psy_rd=1.00:0.00 / mixed_ref=0 / me_range=16 / chroma_me=1 / trellis=0 / 8x8dct=1 / cqm=0 / deadzone=21,11 / fast_pskip=1 / chroma_qp_offset=0 / threads=12 / lookahead_threads=2 / sliced_threads=0 / nr=0 / decimate=1 / interlaced=0 / bluray_compat=0 / constrained_intra=0 / bframes=3 / b_pyramid=2 / b_adapt=1 / b_bias=0 / direct=1 / weightb=1 / open_gop=0 / weightp=1 / keyint=250 / keyint_min=25 / scenecut=40 / intra_refresh=0 / rc=abr / mbtree=0 / bitrate=1100 / ratetol=1.0 / qcomp=0.60 / qpmin=0 / qpmax=69 / qpstep=4 / ip_ratio=1.40 / pb_ratio=1.30 / aq=1:1.00
Default                     : Yes
Forced                      : No

Audio
ID                          : 2
Format                      : AAC LC
Format/Info                 : Advanced Audio Codec Low Complexity
Codec ID                    : A_AAC-2
Duration                    : 1 h 56 min
Bit rate                    : 128 kb/s
Channel(s)                  : 2 channels
Channel layout              : L R
Sampling rate               : 44.1 kHz
Frame rate                  : 43.066 FPS (1024 SPF)
Compression mode            : Lossy
Delay relative to video     : -46 ms
Stream size                 : 106 MiB (10%)
Title                       : LatestHDmovies.ORg
Default                     : Yes
Forced                      : No

Text
ID                          : 3
Format                      : UTF-8
Codec ID                    : S_TEXT/UTF8
Codec ID/Info               : UTF-8 Plain Text
Duration                    : 1 h 2 min
Bit rate                    : 0 b/s
Count of elements           : 2
Stream size                 : 130 Bytes (0%)
Title                       : LatestHDmovies.ORg
Default                     : Yes
Forced                      : No


 
 
 
 
 
Category:Movies > South Dub
Lang:Hindi
Total Size:1,023.30 MB
Info Hash:2969e152815fd6807760064ba2cc38ed8751b13b
Added By:LatestHDMovies
Date Added:15-04-2019 15:58:43
Views:392
Hits:45

Download Torrent

Ratings:Not Yet Rated (Log in to rate it)


Tracker:
udp://tracker.publicbt.com:80/announce

This Torrent also has backup trackers
URLSeedersLeechersCompleted
http://tracker.electro-torrent.pl:80/announce421
http://retracker.mgts.by:80/announce000
http://t.nyaatracker.com:80/announce000
https://bwt.pw/announce.php812476


File List: 


Comments

No comments still posted

Powered by 10 Hamsters v2-svn -|- Page Generated In 0.709784 secs.
-|- RSS FEED
Theme By: Nikkbu