[Login] or [Signup]
Login
Username:
Password:
[Signup]
[Recover Account]


Poll


You must be logged in to view polls



Torrent Details For "18+Bekaaboo (2019) Season 1 Complete Hindi AltBalaji Originals 720p WEB-DL x264 1.6GB-1337xHD"

18+Bekaaboo (2019) Season 1 Complete Hindi AltBalaji Originals 720p WEB-DL x264 1.6GB-1337xHD

Download this torrent | Magnet Download
Health:
Seeds: 24
Leechers: 50
Completed: 32 
Last Checked: 15-05-2019 13:33:01
External Torrent
Update Stats


Poster


iMDB
Title: Bekaaboo
Year: 2019
Votes: 10
Rating: 7.5/10
Language: Hindi

Cast:
Rajeev Siddhartha as Kiyaan Roy unknown episodes
Priya Banerjee as Kashti unknown episodes
Sneha Upadhyay as Anaisha unknown episodes
Trailers:
ALTBalaji | Bekaaboo | All episodes streaming now
ALTBalaji l Bekaaboo l Official Trailer l Episodes streaming 15th May


Details
Name:18+Bekaaboo (2019) Season 1 Complete Hindi AltBalaji Originals 720p WEB-DL x264 1.6GB-1337xHD
Description:
 https://1337xhd.mobi/

 

 

General
Complete name                            :Bekaaboo (2019) Season 1 Complete Hindi AltBalaji Originals 720p WEB-DL x264 1.6GB.mkv
Format                                   : Matroska
Format version                           : Version 4
File size                                : 1.62 GiB
Duration                                 : 3 h 26 min
Overall bit rate                         : 1 121 kb/s
Movie name                               : www.1337xHD.Mobi
Encoded date                             : UTC 2019-05-15 10:12:03
Writing application                      : mkvmerge v29.0.0 ('Like It Or Not') 32-bit
Writing library                          : libebml v1.3.6 + libmatroska v1.4.9

Video
ID                                       : 1
Format                                   : AVC
Format/Info                              : Advanced Video Codec
Format profile                           : [email protected]
Format settings                          : CABAC / 4 Ref Frames
Format settings, CABAC                   : Yes
Format settings, Reference frames        : 4 frames
Codec ID                                 : V_MPEG4/ISO/AVC
Duration                                 : 3 h 26 min
Bit rate                                 : 1 000 kb/s
Width                                    : 1 280 pixels
Height                                   : 720 pixels
Display aspect ratio                     : 16:9
Frame rate mode                          : Constant
Frame rate                               : 25.000 FPS
Color space                              : YUV
Chroma subsampling                       : 4:2:0
Bit depth                                : 8 bits
Scan type                                : Progressive
Bits/(Pixel*Frame)                       : 0.043
Stream size                              : 1.44 GiB (89%)
Title                                    : www.1337xHD.Mobi
Writing library                          : x264 core 132
Default                                  : Yes
Forced                                   : No

Audio
ID                                       : 2
Format                                   : AAC LC
Format/Info                              : Advanced Audio Codec Low Complexity
Codec ID                                 : A_AAC-2
Duration                                 : 3 h 26 min
Bit rate                                 : 119 kb/s
Channel(s)                               : 2 channels
Channel layout                           : L R
Sampling rate                            : 44.1 kHz
Frame rate                               : 43.066 FPS (1024 SPF)
Compression mode                         : Lossy
Delay relative to video                  : -80 ms
Stream size                              : 175 MiB (11%)
Title                                    : www.1337xHD.Mobi
Language                                 : Hindi
Default                                  : Yes
Forced                                   : No

 
 

 
 
 
 
 
 
 
 
 
Category:Movies > Bollywood
Lang:Hindi
Total Size:1.62 GB
Info Hash:9b93c2e398193520ccf2be9b0c9c34f391fc3fb1
Added By:MaxHD
Date Added:15-05-2019 11:50:50
Views:2,006
Hits:374

Ratings:Not Yet Rated (Log in to rate it)


Tracker:
udp://tracker.opentrackr.org:1337/announce


File List: 


Comments

<< Previous      Next >>
1 - 3

[Report] Posted: 15-05-2019 at 15:10:28
Dishalover



Uploaded: 0.00 B
Downloaded: 0.00 B
Ratio: ---

oooo i guess this is a porn webseries from altbajii team.... but to good is ragini mms returns season 1 bro......

[Report] Posted: 15-05-2019 at 15:11:08
Dishalover



Uploaded: 0.00 B
Downloaded: 0.00 B
Ratio: ---

nice bedroom Censored8ng picz.....

[Report] Posted: 15-05-2019 at 15:11:29
Dishalover



Uploaded: 0.00 B
Downloaded: 0.00 B
Ratio: ---

nice bedroom Censored8ng picz.....

1 - 3
<< Previous      Next >>


Powered by 10 Hamsters v2-svn -|- Page Generated In 2.193912 secs.
-|- RSS FEED
Theme By: Nikkbu