[Login] or [Signup]
Login
Username:
Password:
[Signup]
[Recover Account]


Poll


You must be logged in to view polls



Torrent Details For "Afra Tafri 2019 Hindi Movie WebRip x264 AC3"

Afra Tafri 2019 Hindi Movie WebRip x264 AC3

Download this torrent | Magnet Download
Health:
Seeds: 0
Leechers: 0
Completed:
Last Checked: 12-06-2019 12:01:57
External Torrent
Update Stats


Poster


Details
Name:Afra Tafri 2019 Hindi Movie WebRip x264 AC3
Description:


Afra Tafri 2019 Hindi Movie WebRip x264 AC3




[code]
General
Complete name                            : Afra Tafri 2019 Hindi Movie WebRip x264 AC3.mp4
Format                                   : MPEG-4
Format profile                           : Base Media
Codec ID                                 : isom (isom/iso2/avc1/mp41)
File size                                : 822 MiB
Duration                                 : 2 h 4 min
Overall bit rate                         : 925 kb/s
Video
ID                                       : 1
Format                                   : AVC
Format/Info                              : Advanced Video Codec
Format profile                           : [email protected]
Format settings                          : CABAC / 2 Ref Frames
Format settings, CABAC                   : Yes
Format settings, RefFrames               : 2 frames
Codec ID                                 : avc1
Codec ID/Info                            : Advanced Video Coding
Duration                                 : 2 h 4 min
Bit rate                                 : 733 kb/s
Width                                    : 960 pixels
Height                                   : 640 pixels
Display aspect ratio                     : 3:2
Frame rate mode                          : Constant
Frame rate                               : 24.000 FPS
Color space                              : YUV
Chroma subsampling                       : 4:2:0
Bit depth                                : 8 bits
Scan type                                : Progressive
Bits/(Pixel*Frame)                       : 0.050
Stream size                              : 647 MiB (79%)
Writing library                          : x264
Audio
ID                                       : 2
Format                                   : AC-3
Format/Info                              : Audio Coding 3
Codec ID                                 : ac-3
Duration                                 : 2 h 4 min
Bit rate mode                            : Constant
Bit rate                                 : 192 kb/s
Channel(s)                               : 6 channels
Channel positions                        : Front: L C R, Side: L R, LFE
Sampling rate                            : 44.1 kHz
Frame rate                               : 28.711 FPS (1536 SPF)
Bit depth                                : 16 bits
Compression mode                         : Lossy
Stream size                              : 170 MiB (21%)
Service kind                             : Complete Main
[/code]









Category:Movies > Tamil
Lang:Hindi
Total Size:821.74 MB
Info Hash:e974b87feb611bd45a5be4fa27dc5322f55360ba
Added By:BadoL18
Date Added:12-06-2019 12:01:52
Views:144
Hits:5

Ratings:Not Yet Rated (Log in to rate it)


Tracker:
http://tracker.internetwarriors.net:1337/announce

This Torrent also has backup trackers
URLSeedersLeechersCompleted
http://tracker.internetwarriors.net:1337/announce000
http://tracker3.itzmx.com:6961/announce000
http://tracker1.itzmx.com:8080/announce000
http://tracker.electro-torrent.pl:80/announce000
http://retracker.mgts.by:80/announce000
http://t.nyaatracker.com:80/announce000
https://bwt.pw/announce.php000


File List: 


Comments

No comments still posted

Powered by 10 Hamsters v2-svn -|- Page Generated In 1.567706 secs.
-|- RSS FEED
Theme By: Nikkbu