[Login] or [Signup]
Login
Username:
Password:
[Signup]
[Recover Account]


Poll


You must be logged in to view polls



Torrent Details For " Ghatak Raat (2019 - Aa Karaala Ratri South Hindi Dubbed) - 720p - DTH Rip[x264 - AC3(5.1Ch)]..."

Ghatak Raat (2019 - Aa Karaala Ratri South Hindi Dubbed) - 720p - DTH Rip[x264 - AC3(5.1Ch)]...

Download this torrent | Magnet Download
Health:
Seeds: 98
Leechers: 56
Completed: 608 
Last Checked: 12-07-2019 09:21:17
External Torrent
Update Stats


Poster


iMDB
Title: Aa Karaala Ratri
Year: 2018
Votes: 197
Rating: 8.2/10
Language: Kannada
Director: Dayal Padmanabhan
Writing By: Mohan Habbu,Naveen Krishna,Dayal Padmanabhan,
Produced By: Avinash U. Shetty,
Music: Ganesh Narayanan
Cast:
Ashitha as
Anupama Gowda as
Karthik Jayaram as
Naveen Krishna as
Diwakar Prasad as
Rangayana Raghu as
Jaya Srinivasan as
Veena Sundar as


Details
Name: Ghatak Raat (2019 - Aa Karaala Ratri South Hindi Dubbed) - 720p - DTH Rip[x264 - AC3(5.1Ch)]...
Description:
         Ghatak Raat (2019 - Aa Karaala Ratri South Hindi
Dubbed) - 720p - DTH Rip[x264 - AC3(5.1Ch)] - 1.4 GB  
 







General
Format                                   : Matroska
Format version                           : Version 4
File size                                : 1.40 GiB
Duration                                 : 1 h 56 min

Video
ID                                       : 1
Format                                   : AVC
Format/Info                              : Advanced Video Codec
Format profile                           : [email protected]
Format settings                          : CABAC / 4 Ref Frames
Format settings, CABAC                   : Yes
Format settings, Reference frames        : 4 frames
Codec ID                                 : V_MPEG4/ISO/AVC
Duration                                 : 1 h 56 min
Bit rate                                 : 1 536 kb/s
Width                                    : 1 280 pixels
Height                                   : 544 pixels
Display aspect ratio                     : 2.35:1
Frame rate mode                          : Constant
Frame rate                               : 25.000 FPS
Color space                              : YUV
Chroma subsampling                       : 4:2:0
Bit depth                                : 8 bits
Scan type                                : Progressive
Bits/(Pixel*Frame)                       : 0.088
Stream size                              : 1.25 GiB (89%)

Audio
ID                                       : 2
Format                                   : AC-3
Format/Info                              : Audio Coding 3
Commercial name                          : Dolby Digital
Codec ID                                 : A_AC3
Duration                                 : 1 h 56 min
Bit rate mode                            : Constant
Bit rate                                 : 192 kb/s
Channel(s)                               : 6 channels
Channel layout                           : L R C LFE Ls Rs
Sampling rate                            : 48.0 kHz
Stream size                              : 159 MiB (11%)


  Thumbnail    



Category:Movies > South Dub
Lang:Hindi
Total Size:1.40 GB
Info Hash:e096e5f9f75561ab05163ccf9042d0a122c54dfa
Added By:CyberTron
Date Added:11-07-2019 14:51:00
Views:463
Hits:28

Ratings:Not Yet Rated (Log in to rate it)

  


Tracker:
udp://tracker.trackerfix.com:80/announce


File List: 


Comments

No comments still posted

Powered by 10 Hamsters v2-svn -|- Page Generated In 0.483627 secs.
-|- RSS FEED
Theme By: Nikkbu