[Login] or [Signup]
Login
Username:
Password:
[Signup]
[Recover Account]


Poll


You must be logged in to view polls



Torrent Details For " Hum Hain Khiladi (2019 - Bheemili Kabaddi Jattu South Hindi Dubbed) - 720p - DTH Rip[x264 - A..."

Hum Hain Khiladi (2019 - Bheemili Kabaddi Jattu South Hindi Dubbed) - 720p - DTH Rip[x264 - A...

Download this torrent | Magnet Download
Health:
Seeds: 162
Leechers: 66
Completed: 495 
Last Checked: 11-07-2019 15:03:08
External Torrent
Update Stats


Poster


iMDB
Title: Bheemli Kabadi Jattu
Year: 2010
Votes: 94
Rating: 7.8/10
Language: Telugu
Director: Tatineni Satya

Produced By: Paras Jain,Prasad N.V.,
Music: V. Selva Ganesh
Cast:
Nani as Suri
Saranya Mohan as
Kishore Kumar G. as


Details
Name: Hum Hain Khiladi (2019 - Bheemili Kabaddi Jattu South Hindi Dubbed) - 720p - DTH Rip[x264 - A...
Description:
         Hum Hain Khiladi (2019 - Bheemili Kabaddi Jattu
South Hindi Dubbed) - 720p
- DTH Rip[x264 - AC3(5.1Ch)] - 1.4 GB  
 





General
Format                                   : Matroska
Format version                           : Version 4
File size                                : 1.40 GiB
Duration                                 : 1 h 55 min

Video
ID                                       : 1
Format                                   : AVC
Format/Info                              : Advanced Video Codec
Format profile                           : [email protected]
Format settings                          : CABAC / 4 Ref Frames
Format settings, CABAC                   : Yes
Format settings, Reference frames        : 4 frames
Codec ID                                 : V_MPEG4/ISO/AVC
Duration                                 : 1 h 55 min
Bit rate                                 : 1 544 kb/s
Width                                    : 1 280 pixels
Height                                   : 544 pixels
Display aspect ratio                     : 2.35:1
Frame rate mode                          : Constant
Frame rate                               : 25.000 FPS
Color space                              : YUV
Chroma subsampling                       : 4:2:0
Bit depth                                : 8 bits
Scan type                                : Progressive
Bits/(Pixel*Frame)                       : 0.089
Stream size                              : 1.25 GiB (89%)

Audio
ID                                       : 2
Format                                   : AC-3
Format/Info                              : Audio Coding 3
Commercial name                          : Dolby Digital
Codec ID                                 : A_AC3
Duration                                 : 1 h 55 min
Bit rate mode                            : Constant
Bit rate                                 : 192 kb/s
Channel(s)                               : 6 channels
Channel layout                           : L R C LFE Ls Rs
Sampling rate                            : 48.0 kHz
Stream size                              : 159 MiB (11%)
Language                                 : Hindi

  Thumbnail    




Category:Movies > South Dub
Lang:Hindi
Total Size:1.40 GB
Info Hash:16771bb63e169272aeb4b6fd6e5de72ee84adcbd
Added By:CyberTron
Date Added:11-07-2019 15:01:51
Views:569
Hits:26

Ratings:Not Yet Rated (Log in to rate it)

  


Tracker:
udp://tracker.trackerfix.com:80/announce


File List: 


Comments

No comments still posted

Powered by 10 Hamsters v2-svn -|- Page Generated In 0.514683 secs.
-|- RSS FEED
Theme By: Nikkbu