[Login] or [Signup]
Login
Username:
Password:
[Signup]
[Recover Account]


Poll


You must be logged in to view polls



Torrent Details For "Maharaaja (2019 - Maharaaja - South Hindi Dubbed) - 720p - DTHRip[x264 - AAC3(5.1Ch)] - 1.4 GB"

Maharaaja (2019 - Maharaaja - South Hindi Dubbed) - 720p - DTHRip[x264 - AAC3(5.1Ch)] - 1.4 GB

Download this torrent | Magnet Download
Health:
Seeds: 98
Leechers: 148
Completed: 115 
Last Checked: 11-07-2019 17:58:35
External Torrent
Update Stats


Poster


iMDB
Title: Maharaja
Year: 2011
Language: Tamil
Director: Manoharan

Produced By: J. Ravi,
Music: D. Imman
Cast:
Anjali as
Karunas as
Nassar as
Saranya Ponvannan as
Anita Hassanandani Reddy as
Sathya as
M.S. Viswanathan as


Details
Name:Maharaaja (2019 - Maharaaja - South Hindi Dubbed) - 720p - DTHRip[x264 - AAC3(5.1Ch)] - 1.4 GB
Description:
        Maharaaja (2019 - Maharaaja - South Hindi Dubbed)[center]
- 720p - DTHRip[x264 - AAC3(5.1Ch)] - 1.4 GB  
 







General
Format                                   : Matroska
Format version                           : Version 4
File size                                : 1.40 GiB
Duration                                 : 2 h 49 min

Video
ID                                       : 1
Format                                   : AVC
Format/Info                              : Advanced Video Codec
Format profile                           : [email protected]
Format settings                          : CABAC / 4 Ref Frames
Format settings, CABAC                   : Yes
Format settings, Reference frames        : 4 frames
Codec ID                                 : V_MPEG4/ISO/AVC
Duration                                 : 2 h 49 min
Bit rate                                 : 1 054 kb/s
Width                                    : 1 280 pixels
Height                                   : 552 pixels
Display aspect ratio                     : 2.35:1
Frame rate mode                          : Constant
Frame rate                               : 25.000 FPS
Color space                              : YUV
Chroma subsampling                       : 4:2:0
Bit depth                                : 8 bits
Scan type                                : Progressive
Bits/(Pixel*Frame)                       : 0.060
Stream size                              : 1.25 GiB (89%)

Audio
ID                                       : 2
Format                                   : AAC LC SBR
Commercial name                          : HE-AAC
Format settings                          : Explicit
Codec ID                                 : A_AAC-2
Duration                                 : 2 h 49 min
Bit rate                                 : 128 kb/s
Channel(s)                               : 6 channels
Channel layout                           : C L R Ls Rs LFE
Sampling rate                            : 48.0 kHz
Stream size                              : 155 MiB (11%)
Language                                 : Hindi


  Thumbnail    





Category:Movies > South Dub
Lang:Hindi
Total Size:1.40 GB
Info Hash:05850012c2ff1b48311be8d0976f83bdf25028f2
Added By:CyberTron
Date Added:11-07-2019 15:09:43
Views:727
Hits:41

Ratings:Not Yet Rated (Log in to rate it)

  


Tracker:
udp://tracker.trackerfix.com:80/announce


File List: 


Comments

No comments still posted

Powered by 10 Hamsters v2-svn -|- Page Generated In 0.639582 secs.
-|- RSS FEED
Theme By: Nikkbu