[Login] or [Signup]
Login
Username:
Password:
[Signup]
[Recover Account]


Poll


You must be logged in to view polls



Torrent Details For "Alita Battle Angel (2019) 720p BluRay x264 [Dual-Audio][Hindi 5.1 - English 5.1] ESubs - Downlo..."

Alita Battle Angel (2019) 720p BluRay x264 [Dual-Audio][Hindi 5.1 - English 5.1] ESubs - Downlo...

Download this torrent | Magnet Download
Health:
Seeds: 74
Leechers: 287
Completed: 133 
Last Checked: 12-07-2019 06:20:36
External Torrent
Update Stats


Poster
No poster


Details
Name:Alita Battle Angel (2019) 720p BluRay x264 [Dual-Audio][Hindi 5.1 - English 5.1] ESubs - Downlo...
Description:


 



Format                                   : AVC
Format/Info                              : Advanced Video Codec
Format profile                           : [email protected]
Format settings                          : CABAC / 8 Ref Frames
Format settings, CABAC                   : Yes
Format settings, RefFrames               : 8 frames
Codec ID                                 : V_MPEG4/ISO/AVC
Duration                                 : 2 h 1 min
Bit rate                                 : 1 102 kb/s
Width                                    : 1 280 pixels
Height                                   : 536 pixels
Display aspect ratio                     : 2.40:1
Frame rate mode                          : Constant
Frame rate                               : 23.976 (24000/1001) FPS
Color space                              : YUV
Chroma subsampling                       : 4:2:0
Bit depth                                : 8 bits
Scan type                                : Progressive
Bits/(Pixel*Frame)                       : 0.067

Audio #1
ID                                       : 2
Format                                   : AAC
Format/Info                              : Advanced Audio Codec
Format profile                           : HE-AAC / LC
Format settings                          : Explicit
Codec ID                                 : A_AAC-2
Duration                                 : 2 h 1 min
Bit rate                                 : 192 kb/s
Channel(s)                               : 6 channels
Channel positions                        : Front: L C R, Side: L R, LFE
Sampling rate                            : 44.1 kHz / 22.05 kHz
Frame rate                               : 21.533 FPS (1024 SPF)
Compression mode                         : Lossy
Delay relative to video                  : 33 ms
Stream size                              : 165 MiB (13%)
Language                                 : Hindi
Default                                  : No
Forced                                   : Yes

Audio #2
ID                                       : 3
Format                                   : AAC
Format/Info                              : Advanced Audio Codec
Format profile                           : LC
Codec ID                                 : A_AAC-2
Duration                                 : 2 h 1 min
Bit rate                                 : 126 kb/s
Channel(s)                               : 6 channels
Channel positions                        : Front: L C R, Side: L R, LFE
Sampling rate                            : 48.0 kHz
Frame rate                               : 46.875 FPS (1024 SPF)
Compression mode                         : Lossy
Delay relative to video                  : 9 ms
Stream size                              : 110 MiB (9%)
Language                                 : English
Default                                  : No
Forced                                   : No

Text
ID                                       : 4
Format                                   : UTF-8
Codec ID                                 : S_TEXT/UTF8
Codec ID/Info                            : UTF-8 Plain Text
Duration                                 : 1 h 55 min
Bit rate                                 : 46 b/s
Count of elements                        : 1588
Stream size                              : 39.2 KiB (0%)
Default                                  : Yes
Forced                                   : No





 
 
 

Category:Movies > Hollywood Dub
Lang:Hindi
Total Size:1.21 GB
Info Hash:d4d037dfb1906e5cbceaf86668f2f7621c1535dd
Added By:downloadhub
Date Added:12-07-2019 00:14:17
Views:517
Hits:140

Ratings:Not Yet Rated (Log in to rate it)


Tracker:
udp://tracker.coppersurfer.tk:6969/announce


File List: 


Comments

No comments still posted

Powered by 10 Hamsters v2-svn -|- Page Generated In 0.610145 secs.
-|- RSS FEED
Theme By: Nikkbu