[Login] or [Signup]
Login
Username:
Password:
[Signup]
[Recover Account]


Poll


You must be logged in to view polls



Torrent Details For "Hum Chaar 2019 x264 720p Zee5 Hindi GOPISAHI"

Hum Chaar 2019 x264 720p Zee5 Hindi GOPISAHI

Download this torrent | Magnet Download
Health:
Seeds: 306
Leechers: 516
Completed: 232 
Last Checked: 12-07-2019 05:19:07
External Torrent
Update Stats


Poster
No poster


Details
Name:Hum Chaar 2019 x264 720p Zee5 Hindi GOPISAHI
Description:
 https://www.gopisahi.xyz/



Hum Chaar 2019 x264 720p Zee5 Hindi GOPISAHI

Format                         : Matroska
Format version                 : Version 4
File size                      : 682 MiB
Duration                       : 2 h 16 min
Overall bit rate               : 697 kb/s
Movie name                     : Hum Chaar 2019 GOPISAHI

Video
Format                         : AVC
Format/Info                    : Advanced Video Codec
Format profile                 : [email protected]
Format settings                : CABAC / 16 Ref Frames
Format settings, CABAC         : Yes
Format settings, Reference fra : 16 frames
Codec ID                       : V_MPEG4/ISO/AVC
Duration                       : 2 h 16 min
Bit rate                       : 599 kb/s
Width                          : 1 280 pixels
Height                         : 546 pixels
Display aspect ratio           : 2.35:1
Frame rate mode                : Constant
Frame rate                     : 25.000 FPS
Color space                    : YUV
Chroma subsampling             : 4:2:0
Bit depth                      : 8 bits
Scan type                      : Progressive
Bits/(Pixel*Frame)             : 0.034
Stream size                    : 586 MiB (86%)
Title                          : GOPISAHI
Writing library                : x264 core 157 r2935 545de2f

Audio
Format                         : AAC LC
Duration                       : 2 h 16 min
Bit rate                       : 96.0 kb/s
Channel(s)                     : 2 channels
Channel layout                 : L R
Sampling rate                  : 48.0 kHz
Frame rate                     : 46.875 FPS (1024 SPF)
Compression mode               : Lossy
Delay relative to video        : -21 ms
Stream size                    : 93.8 MiB (14%)
Title                          : GOPISAHI
Language                       : Hindi





Category:Movies > Bollywood
Lang:Hindi
Total Size:681.63 MB
Info Hash:8a76e2a4fac0d3b5450cb34910a7a6081c1d2913
Added By:gopisahi
Date Added:12-07-2019 04:32:46
Views:1,068
Hits:119

Ratings:Not Yet Rated (Log in to rate it)


Tracker:
udp://tracker.open-internet.nl:6969/announce

This Torrent also has backup trackers
URLSeedersLeechersCompleted
http://tracker3.itzmx.com:6961/announce216313
http://tracker1.itzmx.com:8080/announce216313
http://open.acgnxtracker.com:80/announce000
http://tracker4.itzmx.com:2710/announce645
http://tracker.novg.net:6969/announce000
https://tracker.fastdownload.xyz:443/announce530
https://t.quic.ws:443/announce530
http://open.trackerlist.xyz:80/announce530
http://gwp2-v19.rinet.ru:80/announce645
http://opentracker.h4ck.me:6969/announce000
http://carapax.net:6969/announce000
http://tracker.tvunderground.org.ru:3218/announce647
https://tracker.gbitt.info:443/announce453
http://vps02.net.orel.ru:80/announce645
http://tracker.moxing.party:6969/announce000
http://tracker.gbitt.info:80/announce453
http://mail2.zelenaya.net:80/announce000
http://bt1.xxxxbt.cc:6969/announce545
http://t.nyaatracker.com:80/announce200
https://tracker.vectahosting.eu:2053/announce433
https://tracker.parrotsec.org:443/announce000
http://tracker2.itzmx.com:6961/announce000
http://tracker.bz:80/announce730
http://tracker.bt4g.com:2095/announce100
https://1337.abcvg.info:443/announce000
http://tracker.torrentyorg.pl:80/announce342
http://t.acg.rip:6699/announce000
http://share.camoe.cn:8080/announce000
http://bt-tracker.gamexp.ru:2710/announce000


File List: 


Comments

No comments still posted

Powered by 10 Hamsters v2-svn -|- Page Generated In 0.193316 secs.
-|- RSS FEED
Theme By: Nikkbu