[Login] or [Signup]
Login
Username:
Password:
[Signup]
[Recover Account]


Poll


You must be logged in to view polls



Torrent Details For "Point Blank (2019) Dual Audio 720p NF WEB-DL [Hindi DD5.1-English] x264 1GB ESub-1337xHD"

Point Blank (2019) Dual Audio 720p NF WEB-DL [Hindi DD5.1-English] x264 1GB ESub-1337xHD

Download this torrent | Magnet Download
Health:
Seeds: 0
Leechers: 0
Completed:
Last Checked: 13-07-2019 11:07:40
External Torrent
Update Stats


Poster
No poster


Details
Name:Point Blank (2019) Dual Audio 720p NF WEB-DL [Hindi DD5.1-English] x264 1GB ESub-1337xHD
Description:
 https://1337xhd.mobi/

 

 

General
Complete name                            :Point Blank (2019) Dual Audio 720p NF WEB-DL [Hindi DD5.1-English] x264 1GB ESub.mkv
Format                                   : Matroska
Format version                           : Version 4
File size                                : 1.00 GiB
Duration                                 : 1 h 26 min
Overall bit rate                         : 1 653 kb/s
Movie name                               : www.1337xHD.in
Writing application                      : Lavf58.27.103
Writing library                          : Lavf58.27.103
ErrorDetectionType                       : Per level 1

Video
ID                                       : 1
Format                                   : AVC
Format/Info                              : Advanced Video Codec
Format profile                           : [email protected]
Format settings                          : CABAC / 4 Ref Frames
Format settings, CABAC                   : Yes
Format settings, Reference frames        : 4 frames
Codec ID                                 : V_MPEG4/ISO/AVC
Duration                                 : 1 h 26 min
Bit rate                                 : 2 527 kb/s
Nominal bit rate                         : 1 545 kb/s
Width                                    : 1 274 pixels
Height                                   : 720 pixels
Display aspect ratio                     : 16:9
Frame rate mode                          : Variable
Frame rate                               : 23.976 FPS
Color space                              : YUV
Chroma subsampling                       : 4:2:0
Bit depth                                : 8 bits
Scan type                                : Progressive
Bits/(Pixel*Frame)                       : 0.115
Stream size                              : 1.53 GiB
Title                                    : www.1337xHD.in
Writing library                          : x264 core 157
Default                                  : Yes
Forced                                   : No

Audio
ID                                       : 2
Format                                   : AAC LC
Format/Info                              : Advanced Audio Codec Low Complexity
Codec ID                                 : A_AAC-2
Duration                                 : 1 h 26 min
Bit rate                                 : 640 kb/s
Channel(s)                               : 2 channels
Channel layout                           : L R
Sampling rate                            : 44.1 kHz
Frame rate                               : 43.066 FPS (1024 SPF)
Compression mode                         : Lossy
Stream size                              : 397 MiB (39%)
Title                                    : www.1337xHD.in
Writing library                          : Lavc58.53.100 libfdk_aac
Language                                 : Hindi
Default                                  : Yes
Forced                                   : No

Text
ID                                       : 3
Format                                   : ASS
Codec ID                                 : S_TEXT/ASS
Codec ID/Info                            : Advanced Sub Station Alpha
Duration                                 : 1 h 21 min
Bit rate                                 : 79 b/s
Count of elements                        : 1539
Compression mode                         : Lossless
Stream size                              : 47.5 KiB (0%)
Title                                    : www.1337xHD.in
Writing library                          : Lavc58.53.100 ssa
Language                                 : English
Default                                  : No
Forced                                   : No

 
 

 
Category:Movies > Hollywood Dub
Lang:Hindi
Total Size:1.00 GB
Info Hash:0073ca0155814741a1ab1f8e303d688f4dd02868
Added By:HDFilmBoss
Date Added:12-07-2019 09:49:24
Views:679
Hits:92

Ratings:Not Yet Rated (Log in to rate it)


Tracker:
udp://tracker.coppersurfer.tk:6969/announce


File List: 


Comments

No comments still posted

Powered by 10 Hamsters v2-svn -|- Page Generated In 0.580955 secs.
-|- RSS FEED
Theme By: Nikkbu