[Login] or [Signup]
Login
Username:
Password:
[Signup]
[Recover Account]


Poll


You must be logged in to view polls



Torrent Details For "De De Pyaar De 2019 x264 720p Esub Zee5 Hindi GOPISAHI"

De De Pyaar De 2019 x264 720p Esub Zee5 Hindi GOPISAHI

Download this torrent | Magnet Download
Health:
Seeds: 42
Leechers: 0
Completed: 2,918 
Last Checked: 27-09-2019 00:19:46
External Torrent
Update Stats


Poster
No poster


Details
Name:De De Pyaar De 2019 x264 720p Esub Zee5 Hindi GOPISAHI
Description:



De De Pyaar De 2019 x264 720p Esub Zee5 Hindi GOPISAHI

Format                         : Matroska
Format version                 : Version 4
File size                      : 767 MiB
Duration                       : 2 h 14 min
Overall bit rate               : 797 kb/s
Movie name                     : De De Pyaar De 2019 GOPISAHI

Video
Format                         : AVC
Format/Info                    : Advanced Video Codec
Format profile                 : [email protected]
Format settings                : CABAC / 16 Ref Frames
Codec ID                       : V_MPEG4/ISO/AVC
Duration                       : 2 h 14 min
Bit rate                       : 699 kb/s
Width                          : 1 280 pixels
Height                         : 536 pixels
Display aspect ratio           : 2.40:1
Frame rate mode                : Constant
Frame rate                     : 24.000 FPS
Color space                    : YUV
Chroma subsampling             : 4:2:0
Bit depth                      : 8 bits
Scan type                      : Progressive
Bits/(Pixel*Frame)             : 0.042
Stream size                    : 672 MiB (88%)
Title                          : GOPISAHI
Writing library                : x264 core 157 r2935 545de2f

Audio
Format                         : AAC LC
Duration                       : 2 h 14 min
Bit rate                       : 96.0 kb/s
Channel(s)                     : 2 channels
Channel layout                 : L R
Sampling rate                  : 48.0 kHz
Frame rate                     : 46.875 FPS (1024 SPF)
Compression mode               : Lossy
Delay relative to video        : -21 ms
Stream size                    : 92.2 MiB (12%)
Title                          : GOPISAHI
Language                       : Hindi






Category:Movies > Bollywood
Lang:Hindi
Total Size:766.57 MB
Info Hash:bb4d87e86a5620a24682b14ae0b8f07188d8ec5b
Added By:gopisahi
Date Added:12-07-2019 11:08:43
Views:943
Hits:209

Ratings:Not Yet Rated (Log in to rate it)


Tracker:
udp://tracker.open-internet.nl:6969/announce

This Torrent also has backup trackers
URLSeedersLeechersCompleted
http://tracker3.itzmx.com:6961/announce0053
http://tracker1.itzmx.com:8080/announce0053
http://open.acgnxtracker.com:80/announce000
http://tracker4.itzmx.com:2710/announce32305
http://tracker.novg.net:6969/announce000
https://tracker.fastdownload.xyz:443/announce002
https://t.quic.ws:443/announce002
http://open.trackerlist.xyz:80/announce000
http://gwp2-v19.rinet.ru:80/announce003
http://opentracker.h4ck.me:6969/announce000
http://carapax.net:6969/announce000
http://tracker.tvunderground.org.ru:3218/announce2070
https://tracker.gbitt.info:443/announce004
http://vps02.net.orel.ru:80/announce1049
http://tracker.moxing.party:6969/announce000
http://tracker.gbitt.info:80/announce004
http://mail2.zelenaya.net:80/announce000
http://bt1.xxxxbt.cc:6969/announce100
http://t.nyaatracker.com:80/announce000
https://tracker.vectahosting.eu:2053/announce100
https://tracker.parrotsec.org:443/announce000
http://tracker2.itzmx.com:6961/announce300
http://tracker.bz:80/announce000
http://tracker.bt4g.com:2095/announce000
https://1337.abcvg.info:443/announce000
http://tracker.torrentyorg.pl:80/announce100
http://t.acg.rip:6699/announce000
http://share.camoe.cn:8080/announce000
http://bt-tracker.gamexp.ru:2710/announce000


File List: 


Comments

No comments still posted

Powered by 10 Hamsters v2-svn -|- Page Generated In 0.237068 secs.
-|- RSS FEED
Theme By: Nikkbu