[Login] or [Signup]
Login
Username:
Password:
[Signup]
[Recover Account]


Poll


You must be logged in to view polls



Torrent Details For "Saadi Marzi (2019) Punjabi 720p WEB-DL x264 AC3 1GB ESub-1337xHD"

Saadi Marzi (2019) Punjabi 720p WEB-DL x264 AC3 1GB ESub-1337xHD

Download this torrent | Magnet Download
Health:
Seeds: 0
Leechers: 0
Completed:
Last Checked: 12-07-2019 13:54:58
External Torrent
Update Stats


Poster
No poster


Details
Name:Saadi Marzi (2019) Punjabi 720p WEB-DL x264 AC3 1GB ESub-1337xHD
Description:
 https://1337xhd.mobi/

 

 

General
Complete name                            :Saadi Marzi (2019) Punjabi 720p WEB-DL x264 AC3 1GB ESub.mkv
Format                                   : Matroska
Format version                           : Version 4
File size                                : 1.01 GiB
Duration                                 : 1 h 58 min
Overall bit rate                         : 1 220 kb/s
Movie name                               : www.1337xHD.in
Writing application                      : Lavf58.27.103
Writing library                          : Lavf58.27.103
ErrorDetectionType                       : Per level 1

Video
ID                                       : 1
Format                                   : AVC
Format/Info                              : Advanced Video Codec
Format profile                           : [email protected]
Format settings                          : CABAC / 4 Ref Frames
Format settings, CABAC                   : Yes
Format settings, Reference frames        : 4 frames
Codec ID                                 : V_MPEG4/ISO/AVC
Duration                                 : 1 h 58 min
Bit rate                                 : 6 738 kb/s
Nominal bit rate                         : 1 118 kb/s
Width                                    : 1 280 pixels
Height                                   : 532 pixels
Display aspect ratio                     : 2.40:1
Frame rate mode                          : Variable
Frame rate                               : 24.000 FPS
Color space                              : YUV
Chroma subsampling                       : 4:2:0
Bit depth                                : 8 bits
Scan type                                : Progressive
Bits/(Pixel*Frame)                       : 0.412
Title                                    : www.1337xHD.in
Writing library                          : x264 core 157
Default                                  : Yes
Forced                                   : No

Audio
ID                                       : 2
Format                                   : AAC LC
Format/Info                              : Advanced Audio Codec Low Complexity
Codec ID                                 : A_AAC-2
Duration                                 : 1 h 58 min
Bit rate                                 : 224 kb/s
Channel(s)                               : 1 channel
Channel layout                           : C
Sampling rate                            : 44.1 kHz
Frame rate                               : 43.066 FPS (1024 SPF)
Compression mode                         : Lossy
Stream size                              : 190 MiB (18%)
Title                                    : www.1337xHD.in
Writing library                          : Lavc58.53.100 libfdk_aac
Language                                 : Panjabi
Default                                  : Yes
Forced                                   : No

Text
ID                                       : 3
Format                                   : ASS
Codec ID                                 : S_TEXT/ASS
Codec ID/Info                            : Advanced Sub Station Alpha
Duration                                 : 1 h 58 min
Bit rate                                 : 83 b/s
Count of elements                        : 2107
Compression mode                         : Lossless
Stream size                              : 70.6 KiB (0%)
Title                                    : www.1337xHD.in
Writing library                          : Lavc58.53.100 ssa
Language                                 : English
Default                                  : No
Forced                                   : No

 
 

 
Category:Movies > Punjabi
Lang:Punjabi
Total Size:1.01 GB
Info Hash:315a1b99173d5b2bc324fd8085854ae95013bbd5
Added By:HDFilmBoss
Date Added:12-07-2019 13:54:58
Views:341
Hits:54

Ratings:Not Yet Rated (Log in to rate it)


Tracker:
udp://tracker.coppersurfer.tk:6969/announce


File List: 


Comments

No comments still posted

Powered by 10 Hamsters v2-svn -|- Page Generated In 0.542111 secs.
-|- RSS FEED
Theme By: Nikkbu