[Login] or [Signup]
Login
Username:
Password:
[Signup]
[Recover Account]


Poll


You must be logged in to view polls



Torrent Details For "Carly Rae Jepsen - Tug Of War (2008) Flac"

Carly Rae Jepsen - Tug Of War (2008) Flac

Download this torrent | Magnet Download
Health:
Seeds: 0
Leechers: 0
Completed:
Last Checked: 22-07-2019 18:01:32
External Torrent
Update Stats


Poster


Details
Name:Carly Rae Jepsen - Tug Of War (2008) Flac
Description:
Quality-Lossless
Release-2008
Duration-00:40:17
File Size-291.6 MB
Genre-Pop
Cover Size-1500px

----------------------------------------------------------------------------------------------
Analyzed: Tug Of War / Artist: Carly Rae Jepsen
----------------------------------------------------------------------------------------------
DR Peak RMS Duration Title [codec]
----------------------------------------------------------------------------------------------
DR10 -0.00 dB -13.04 dB 2:50 01 - Bucket [flac]
DR10 -0.00 dB -12.04 dB 3:43 02 - Tug Of War [flac]
DR8 -0.00 dB -11.33 dB 3:10 03 - Money And The Ego [flac]
DR11 -0.00 dB -15.33 dB 2:20 04 - Tell Me [flac]
DR9 -0.00 dB -12.60 dB 3:41 05 - Heavy Lifting [flac]
DR8 -0.00 dB -10.55 dB 3:35 06 - Sunshine On My Shoulders [flac]
DR9 -0.00 dB -13.43 dB 3:20 07 - Worldly Matters [flac]
DR10 -0.00 dB -13.96 dB 2:56 08 - Sweet Talker [flac]
DR9 -0.00 dB -12.82 dB 2:52 09 - Hotel Shampoos [flac]
DR9 -0.00 dB -12.40 dB 3:06 10 - Sour Candy [flac]
DR12 -0.22 dB -15.51 dB 1:37 11 - I Still Wonder (Acoustic) [flac]
DR6 -0.10 dB -7.06 dB 4:00 12 - Tug Of War (Dave Rave Ogilvie Remix) [flac]
DR8 -0.10 dB -11.77 dB 3:02 13 - Sour Candy (Radio Version) [flac]
----------------------------------------------------------------------------------------------
Number of files: 13
Official DR value: DR9

Sampling rate: 44100 Hz
Average bitrate: 950kbs
Bits per sample: 16 bit
Category:Music > FLAC
Lang:English  English
Total Size:278.11 MB
Info Hash:f5eb0e235e1c457db5582465e239382c0d95e4ed
Added By:maxmon
Date Added:22-07-2019 18:01:32
Views:115
Hits:25

Ratings:Not Yet Rated (Log in to rate it)

  


Tracker:
udp://tracker.leechers-paradise.org:6969/announce


File List: 


Comments

No comments still posted

Powered by 10 Hamsters v2-svn -|- Page Generated In 0.002211 secs.
-|- RSS FEED
Theme By: Nikkbu