[Login] or [Signup]
Login
Username:
Password:
[Signup]
[Recover Account]


Poll


You must be logged in to view polls



Torrent Details For "Avengers Endgame 2019 1080p BluRay x264 DTS [MW]"

Avengers Endgame 2019 1080p BluRay x264 DTS [MW]

Download this torrent | Magnet Download
Health:
Seeds: 2,914
Leechers: 352
Completed: 92,371 
Last Checked: 16-08-2019 09:25:04
External Torrent
Update Stats


Poster


iMDB
Title: Avengers: Endgame
Year: 2019
Runtime: 181 minutes
Votes: 10808
Rating: 9.4/10
Language: English
Tagline: Nothing can prepare you for the end.
Director: Anthony Russo
Joe Russo
Writing By: Christopher Markus,Stephen McFeely,Stan Lee,Jack Kirby,Jim Starlin,
Produced By: Victoria Alonso,Mitchell Bell,Ari Costa,Louis D'Esposito,Jon Favreau,Kevin Feige,James Gunn,Stan Lee,Christopher Markus,Stephen McFeely,Trinh Tran,
Music: Alan Silvestri
Cast:
Brie Larson as Carol Danvers / Captain Marvel
Linda Cardellini as Laura Barton
Scarlett Johansson as Natasha Romanoff / Black Widow
Karen Gillan as Nebula
Tessa Thompson as Valkyrie
Robert Downey Jr. as Tony Stark / Iron Man
Chris Hemsworth as Thor
Chris Evans as Steve Rogers / Captain America
Evangeline Lilly as Hope van Dyne / The Wasp
Hayley Atwell as Margaret Carter
Trailers:
Avengers: Endgame Canada Teaser
Avengers Endgame
"Awesome" TV Spot
"To the End" Trailer
"No Mistakes, Kids" TV Spot
Special Look
Official Trailer
Official Trailer


Details
Name:Avengers Endgame 2019 1080p BluRay x264 DTS [MW]
Description:

 


General
Format                                   : Matroska
Format version                           : Version 4
File size                                : 4.90 GiB
Duration                                 : 3 h 1 min
Overall bit rate                         : 3 875 kb/s

Video
ID                                       : 1
Format                                   : AVC
Format/Info                              : Advanced Video Codec
Format profile                           : [email protected]
Format settings                          : CABAC / 4 Ref Frames
Format settings, CABAC                   : Yes
Format settings, Reference frames        : 4 frames
Codec ID                                 : V_MPEG4/ISO/AVC
Duration                                 : 3 h 1 min
Bit rate                                 : 3 100 kb/s
Width                                    : 1 920 pixels
Height                                   : 804 pixels
Display aspect ratio                     : 2.40:1
Frame rate mode                          : Constant
Frame rate                               : 23.976 (24000/1001) FPS
Color space                              : YUV
Chroma subsampling                       : 4:2:0
Bit depth                                : 8 bits
Scan type                                : Progressive
Bits/(Pixel*Frame)                       : 0.084
Stream size                              : 3.92 GiB (80%)
Writing library                          : x264 core 157 r2935 545de2f

Audio
ID                                       : 2
Format                                   : DTS
Format/Info                              : Digital Theater Systems
Codec ID                                 : A_DTS
Duration                                 : 3 h 1 min
Bit rate mode                            : Constant
Bit rate                                 : 768 kb/s
Channel(s)                               : 6 channels
Channel layout                           : C L R Ls Rs LFE
Sampling rate                            : 48.0 kHz
Frame rate                               : 93.750 FPS (512 SPF)
Bit depth                                : 16 bits
Compression mode                         : Lossy
Stream size                              : 995 MiB (20%)
Language                                 : English
Default                                  : Yes
Forced                                   : No

Text #1
ID                                       : 3
Format                                   : UTF-8
Codec ID                                 : S_TEXT/UTF8
Codec ID/Info                            : UTF-8 Plain Text
Duration                                 : 3 h 0 min
Bit rate                                 : 50 b/s
Count of elements                        : 2631
Stream size                              : 67.2 KiB (0%)
Language                                 : English
Default                                  : Yes
Forced                                   : No


Click To View Image

 https://pichub.site/image/Cl6rh
 https://pichub.site/image/ClPQj
 https://pichub.site/image/Cln7r
 https://pichub.site/image/ClsNk
 https://pichub.site/image/Cl3ZQ
 https://pichub.site/image/Cl1Ov
Category:Movies > 1080P Bluray
Lang:English  English
Total Size:4.90 GB
Info Hash:aff2d6555e18745d65ee0e15c4b513f4b2a42e26
Added By:Freaky
Date Added:01-08-2019 11:55:02
Views:1,788
Hits:313

Ratings:Not Yet Rated (Log in to rate it)


Tracker:
udp://tracker.openbittorrent.com:80/announce


File List: 


Comments

No comments still posted

Powered by 10 Hamsters v2-svn -|- Page Generated In 0.195326 secs.
-|- RSS FEED
Theme By: Nikkbu