[Login] or [Signup]
Login
Username:
Password:
[Signup]
[Recover Account]


Poll


You must be logged in to view polls



Torrent Details For "Bharat 2019 Hindi 720p WEB-DL x264 ESub [MW]"

Bharat 2019 Hindi 720p WEB-DL x264 ESub [MW]

Download this torrent | Magnet Download
Health:
Seeds: 118
Leechers: 13
Completed: 3,228 
Last Checked: 14-08-2019 22:59:09
External Torrent
Update Stats


Poster


iMDB
Title: Bharat
Year: 2019
Runtime: 150 minutes
Votes: 2456
Rating: 6.1/10
Language: Hindi
Director: Ali Abbas Zafar
Writing By: Su-jin Park,Varun V. Sharma,Ali Abbas Zafar,
Produced By: Atul Agnihotri,Winston Azzopardi,Alvira Khan,Bhushan Kumar,Krishan Kumar,Yogendra Mogre,Nikhil Namit,Dharam Soni,
Music: Julius Packiam
Cast:
Salman Khan as Bharat
Katrina Kaif as Kumud Raina
Disha Patani as Radha
Kashmira Irani as Unknown
Tabu as Smriti
Varun Dhawan as
Jackie Shroff as Mahabharat
Nora Fatehi as Sophia
Shashank Arora as Chotte
Sunil Grover as Gauthi
Trailers:
BHARAT TRAILER
Bharat (2019) Trailer
Bharat - Movie Teaser Trailer


Details
Name:Bharat 2019 Hindi 720p WEB-DL x264 ESub [MW]
Description:

 


General
Format                                   : Matroska
Format version                           : Version 4
File size                                : 1.43 GiB
Duration                                 : 2 h 34 min
Overall bit rate                         : 1 327 kb/s

Video
ID                                       : 1
Format                                   : AVC
Format/Info                              : Advanced Video Codec
Format profile                           : [email protected]
Format settings                          : CABAC / 4 Ref Frames
Format settings, CABAC                   : Yes
Format settings, Reference frames        : 4 frames
Codec ID                                 : V_MPEG4/ISO/AVC
Duration                                 : 2 h 34 min
Bit rate                                 : 1 200 kb/s
Width                                    : 1 280 pixels
Height                                   : 536 pixels
Display aspect ratio                     : 2.40:1
Frame rate mode                          : Constant
Frame rate                               : 24.000 FPS
Color space                              : YUV
Chroma subsampling                       : 4:2:0
Bit depth                                : 8 bits
Scan type                                : Progressive
Bits/(Pixel*Frame)                       : 0.073
Stream size                              : 1.29 GiB (90%)
Writing library                          : x264 core 157 r2935 545de2f

Audio
ID                                       : 2
Format                                   : AAC LC
Codec ID                                 : A_AAC-2
Duration                                 : 2 h 34 min
Bit rate                                 : 128 kb/s
Channel(s)                               : 2 channels
Channel layout                           : L R
Sampling rate                            : 48.0 kHz
Frame rate                               : 46.875 FPS (1024 SPF)
Compression mode                         : Lossy
Stream size                              : 141 MiB (10%)
Language                                 : Hindi
Default                                  : Yes
Forced                                   : No

Text
ID                                       : 3
Format                                   : UTF-8
Codec ID                                 : S_TEXT/UTF8
Codec ID/Info                            : UTF-8 Plain Text
Duration                                 : 2 h 28 min
Bit rate                                 : 60 b/s
Count of elements                        : 2125
Stream size                              : 65.4 KiB (0%)
Default                                  : Yes
Forced                                   : No


Click To View Image

 https://pichub.site/image/CHcSV
 https://pichub.site/image/CH790
 https://pichub.site/image/CHkKT
 https://pichub.site/image/CHwXN
 https://pichub.site/image/CHCMD
 https://pichub.site/image/CHhiZ

Category:Movies > Bollywood
Lang:Hindi
Total Size:1.43 GB
Info Hash:dd225e9ad112e94d05f195822d6c8410bb862a1d
Added By:Freaky
Date Added:04-08-2019 10:27:16
Views:2,892
Hits:591

Ratings:Not Yet Rated (Log in to rate it)


Tracker:
udp://tracker.openbittorrent.com:80/announce


File List: 


Comments

No comments still posted

Powered by 10 Hamsters v2-svn -|- Page Generated In 0.179290 secs.
-|- RSS FEED
Theme By: Nikkbu