[Login] or [Signup]
Login
Username:
Password:
[Signup]
[Recover Account]


Poll


You must be logged in to view polls



Torrent Details For "Barot House 2019 Hindi 1080p WEB-DL x264 AAC { TaRa }.mkv"

Barot House 2019 Hindi 1080p WEB-DL x264 AAC { TaRa }.mkv

Download this torrent | Magnet Download
Health:
Seeds: 522
Leechers: 48
Completed: 6,082 
Last Checked: 15-08-2019 05:50:56
External Torrent
Update Stats


Poster


iMDB
Title: Barot House
Year: 2019
Language: Hindi
Director: Bugs Bhargava
Writing By: Sanjeev k Jha,
Produced By: Jahanara Bhargava,Dhirajj Vinodd Kapoor,Seema Mohapatra,Hussain Shaikh,Salim Shaikh,
Cast:
Amit Sadh as Amit Barot
Manjari Fadnnis as Bhavana Barot
Aaryan Menghji as Malhar Barot
Aseem Hattangadi as Anthony D'Souza
Farida Patel Venkat as Pramila Patel
Kiearra Soni ">Kiearra Soni as Shreya Barot
Kishaa Arora ">Kishaa Arora as Shruti Barot
Alefia Kapadia as


Details
Name:Barot House 2019 Hindi 1080p WEB-DL x264 AAC { TaRa }.mkv
Description:

Barot House 2019 Hindi 1080p WEB-DL x264 AAC  { TaRa }.mkv
 

===================================================================
General
Complete name               : Barot House 2019 Hindi 1080p WEB-DL x264 AAC  { TaRa }.mkv
Format                      : Matroska
Format version              : Version 4
File size                   : 1.45 GiB
Duration                    : 1 h 32 min
Overall bit rate            : 2 258 kb/s
===================================================================
Video
ID                          : 1
Format                      : AVC
Format/Info                 : Advanced Video Codec
Format profile              : [email protected]
Format settings             : CABAC / 4 Ref Frames
Format settings, CABAC      : Yes
Format settings, Reference  : 4 frames
Codec ID                    : V_MPEG4/ISO/AVC
Duration                    : 1 h 32 min
Bit rate                    : 2 200 kb/s
Width                       : 1 920 pixels
Height                      : 1 080 pixels
Display aspect ratio        : 16:9
Frame rate mode             : Constant
Frame rate                  : 25.000 FPS
Color space                 : YUV
Chroma subsampling          : 4:2:0
Bit depth                   : 8 bits
Scan type                   : Progressive
Bits/(Pixel*Frame)          : 0.042
Stream size                 : 1.39 GiB (96%)
Title                       : .....::::: TaRa :::::.....
Language                    : Hindi
Default                     : Yes
Forced                      : No
===================================================================
Audio
ID                          : 2
Format                      : AAC LC
Format/Info                 : Advanced Audio Codec Low Complexity
Codec ID                    : A_AAC-2
Duration                    : 1 h 32 min
Bit rate                    : 96.0 kb/s
Channel(s)                  : 2 channels
Channel layout              : L R
Sampling rate               : 48.0 kHz
Frame rate                  : 46.875 FPS (1024 SPF)
Compression mode            : Lossy
Stream size                 : 63.9 MiB (4%)
Title                       : .....::::: TaRa :::::.....
Language                    : Hindi
Default                     : Yes
Forced                      : No
===================================================================


 
 
 
 
 
 
 
 
 
 
 
 











 



Category:Movies > Bollywood
Lang:Hindi
Total Size:1.45 GB
Info Hash:1bca31fb47896b3597f4b8b95b8fac9b73e86b82
Added By:SkTaRa
Date Added:07-08-2019 05:03:52
Views:4,427
Hits:460

Ratings:Not Yet Rated (Log in to rate it)


Tracker:
udp://tracker.coppersurfer.tk:6969/announce


File List: 


Comments

No comments still posted

Powered by 10 Hamsters v2-svn -|- Page Generated In 2.838909 secs.
-|- RSS FEED
Theme By: Nikkbu