[Login] or [Signup]
Login
Username:
Password:
[Signup]
[Recover Account]


Poll


You must be logged in to view polls



Torrent Details For "John Wick 3 2019 1080p BluRay x264 DTS [MW]"

John Wick 3 2019 1080p BluRay x264 DTS [MW]

Download this torrent | Magnet Download
Health:
Seeds: 393
Leechers: 83
Completed: 16,131 
Last Checked: 21-09-2019 10:07:29
External Torrent
Update Stats


Poster


iMDB
Title: John Wick: Chapter 3 - Parabellum
Year: 2019
Runtime: 130 minutes
Votes: 1313
Rating: 8.7/10
Language: English
Tagline: This Friday, Wick is Back
Director: Chad Stahelski
Writing By: Derek Kolstad,Shay Hatten,Chris Collins,Marc Abrams,Derek Kolstad,Derek Kolstad,
Produced By: Joby Harold,Basil Iwanyk,Erica Lee,David Leitch,Jennifer Madeloff,John R. Saunders,Chad Stahelski,Jeff G. Waxman,
Music: Tyler Bates Joel J. Richard
Cast:
Keanu Reeves as John Wick
Halle Berry as Sofia
Ian McShane as Winston
Laurence Fishburne as Bowery King
Mark Dacascos as Zero
Asia Kate Dillon as The Adjudicator
Lance Reddick as Charon
Tobias Segal as Earl
Anjelica Huston as The Director
Saïd Taghmaoui as The Elder
Trailers:
Official Trailer #2
Official Trailer


Details
Name:John Wick 3 2019 1080p BluRay x264 DTS [MW]
Description:

 


General
Format                                   : Matroska
Format version                           : Version 4
File size                                : 3.60 GiB
Duration                                 : 2 h 11 min
Overall bit rate                         : 3 933 kb/s

Video
ID                                       : 1
Format                                   : AVC
Format/Info                              : Advanced Video Codec
Format profile                           : [email protected]
Format settings                          : CABAC / 4 Ref Frames
Format settings, CABAC                   : Yes
Format settings, Reference frames        : 4 frames
Codec ID                                 : V_MPEG4/ISO/AVC
Duration                                 : 2 h 11 min
Bit rate                                 : 3 200 kb/s
Width                                    : 1 920 pixels
Height                                   : 800 pixels
Display aspect ratio                     : 2.40:1
Frame rate mode                          : Constant
Frame rate                               : 23.976 (24000/1001) FPS
Color space                              : YUV
Chroma subsampling                       : 4:2:0
Bit depth                                : 8 bits
Scan type                                : Progressive
Bits/(Pixel*Frame)                       : 0.087
Stream size                              : 2.90 GiB (80%)
Writing library                          : x264 core 157 r2935 545de2f

Audio
ID                                       : 2
Format                                   : DTS
Format/Info                              : Digital Theater Systems
Codec ID                                 : A_DTS
Duration                                 : 2 h 11 min
Bit rate mode                            : Constant
Bit rate                                 : 768 kb/s
Channel(s)                               : 6 channels
Channel layout                           : C L R Ls Rs LFE
Sampling rate                            : 48.0 kHz
Frame rate                               : 93.750 FPS (512 SPF)
Bit depth                                : 16 bits
Compression mode                         : Lossy
Stream size                              : 720 MiB (20%)
Language                                 : English
Default                                  : Yes
Forced                                   : No

Text #1
ID                                       : 3
Format                                   : UTF-8
Codec ID                                 : S_TEXT/UTF8
Codec ID/Info                            : UTF-8 Plain Text
Duration                                 : 1 h 59 min
Bit rate                                 : 24 b/s
Count of elements                        : 764
Stream size                              : 21.3 KiB (0%)
Language                                 : English
Default                                  : Yes
Forced                                   : No


Click To View Image

 https://pichub.site/image/hRicJ
 https://pichub.site/image/hRtU5
 https://pichub.site/image/hRz9h
 https://pichub.site/image/hRARj
 https://pichub.site/image/hRBKr
 https://pichub.site/image/hRKXk

Category:Movies > 1080P Bluray
Lang:English  English
Total Size:3.60 GB
Info Hash:d7bdf240e1477ffc24cc13dff43bba3000bfafdb
Added By:Freaky
Date Added:18-08-2019 09:30:28
Views:2,575
Hits:522

Ratings:Not Yet Rated (Log in to rate it)


Tracker:
udp://tracker.openbittorrent.com:80/announce


File List: 


Comments

<< Previous      Next >>
1 - 1

[Report] Posted: 21-08-2019 at 00:58:21
gotgame1



Uploaded: 0.00 B
Downloaded: 0.00 B
Ratio: ---

Awesome, Lov the 1080p DTS encodes. Keep up the good work. Thanks

1 - 1
<< Previous      Next >>


Powered by 10 Hamsters v2-svn -|- Page Generated In 0.200054 secs.
-|- RSS FEED
Theme By: Nikkbu