[Login] or [Signup]
Login
Username:
Password:
[Signup]
[Recover Account]


Poll


You must be logged in to view polls



Torrent Details For "Posham Pa 2019 Hindi 1080p WEB-DL x264 AAC { TaRa }.mkv"

Posham Pa 2019 Hindi 1080p WEB-DL x264 AAC { TaRa }.mkv

Download this torrent | Magnet Download
Health:
Seeds: 37
Leechers: 11
Completed: 1,657 
Last Checked: 20-10-2019 05:17:54
External Torrent
Update Stats


Poster


iMDB
Title: Posham Pa
Year: 2019
Language: Hindi
Director: Suman Mukhopadhyay
Writing By: Nimisha Misra ,
Produced By: Jahanara Bhargava,Dhirajj Vinodd Kapoor,Seema Mohapatra,Ramakantrsingh,Hussain Shaikh,Salim Shaikh,
Cast:
Mahie Gill as Prajakta Deshpande
Sayani Gupta as Regha Sathe
Ragini Khanna as Shikha Deshpande
Shivani Raghuvanshi as Nikhat Ismail
Randheer Rai as Dharmesh Deshapnde
Imaaduddin Shah as Gundeep Singh Saggar
Nitanshi Goel as Kid Regha Sathe


Details
Name:Posham Pa 2019 Hindi 1080p WEB-DL x264 AAC { TaRa }.mkv
Description:

Posham Pa 2019 Hindi 1080p WEB-DL x264 AAC { TaRa }.mkv
 

===================================================================
General
Complete name               : Posham Pa 2019 Hindi 1080p WEB-DL x264 AAC { TaRa }.mkv
Format                      : Matroska
Format version              : Version 4
File size                   : 1.17 GiB
Duration                    : 1 h 16 min
Overall bit rate            : 2 202 kb/s
===================================================================
Video
ID                          : 1
Format                      : AVC
Format/Info                 : Advanced Video Codec
Format profile              : [email protected]
Format settings             : CABAC / 4 Ref Frames
Format settings, CABAC      : Yes
Format settings, Reference  : 4 frames
Format settings, GOP        : M=4, N=50
Codec ID                    : V_MPEG4/ISO/AVC
Duration                    : 1 h 16 min
Bit rate                    : 2 200 kb/s
Width                       : 1 920 pixels
Height                      : 1 080 pixels
Display aspect ratio        : 16:9
Frame rate mode             : Constant
Frame rate                  : 25.000 FPS
Color space                 : YUV
Chroma subsampling          : 4:2:0
Bit depth                   : 8 bits
Scan type                   : Progressive
Bits/(Pixel*Frame)          : 0.042
Stream size                 : 1.12 GiB (96%)
Title                       : .....::::: TaRa :::::....
Language                    : Hindi
Default                     : Yes
Forced                      : No
===================================================================
Audio
ID                          : 2
Format                      : AAC LC
Format/Info                 : Advanced Audio Codec Low Complexity
Codec ID                    : A_AAC-2
Duration                    : 1 h 16 min
Bit rate                    : 96.0 kb/s
Channel(s)                  : 2 channels
Channel layout              : L R
Sampling rate               : 48.0 kHz
Frame rate                  : 46.875 FPS (1024 SPF)
Compression mode            : Lossy
Stream size                 : 51.8 MiB (4%)
Title                       : .....::::: TaRa :::::....
Language                    : Hindi
Default                     : Yes
Forced                      : No
===================================================================


 
 
 
 
 
 
 
 
 
 
 











 



Category:Movies > Bollywood
Lang:Hindi
Total Size:1.17 GB
Info Hash:33bcea3e619735c729784f34d9305406e600c4b4
Added By:SkTaRa
Date Added:20-08-2019 20:34:17
Views:5,658
Hits:592

Ratings:Not Yet Rated (Log in to rate it)


Tracker:
udp://tracker.coppersurfer.tk:6969/announce


File List: 


Comments

No comments still posted

Powered by 10 Hamsters v2-svn -|- Page Generated In 3.433422 secs.
-|- RSS FEED
Theme By: Nikkbu