[Login] or [Signup]
Login
Username:
Password:
[Signup]
[Recover Account]


Poll


You must be logged in to view polls



Torrent Details For "Saaho 2019 Hindi 720p Pre-DVD Rip X264 AAC { TaRa }.mkv"

Saaho 2019 Hindi 720p Pre-DVD Rip X264 AAC { TaRa }.mkv

Download this torrent | Magnet Download
Health:
Seeds: 2,065
Leechers: 318
Completed: 25,211 
Last Checked: 21-09-2019 08:50:50
External Torrent
Update Stats


Poster


iMDB
Title: Saaho
Year: 2019
Votes: 3317
Rating: 6.2/10
Language: Telugu, Tamil, Hindi, Malayalam, English, Japanese, Spanish, French, Punjabi
Director: Sujeeth
Writing By: K.G.R Ashok ,Abbas Dalal,Hussain Dalal,Sujeeth,
Produced By: Ollwyn Dsouza,Ivano Fucci,Garrett Grant,Bhushan Kumar,Gulshan Kumar,Shyam P.S.,Mini Purushot,V. Vamsi Krishna Reddy,Vikram Reddy,Tomas Rotnagl,Michele Saragoni,Pramod Uppalapati,
Music: Ghibran
Cast:
Prabhas as Ashok Chakravarthy / Saaho / Siddhant Nandan Saaho
Shraddha Kapoor as Amritha Nair
Jackie Shroff as Roy
Neil Nitin Mukesh as Jai
Vennela Kishore as Goswami
Murli Sharma as David
Arun Vijay as Vishwank
Prakash Belawadi as Shinde
Evelyn Sharma as Aisha / Jennifer
Mandira Bedi as Kalki
Trailers:
Saaho Hindi Trailer
Saaho Tamil Trailer
Saaho Malayalam Trailer
Saaho Telugu Trailer
Saaho Trailer 2019
Saaho trailer


Details
Name:Saaho 2019 Hindi 720p Pre-DVD Rip X264 AAC { TaRa }.mkv
Description:

Saaho 2019 Hindi 720p Pre-DVD Rip X264 AAC { TaRa }.mkv
 

===================================================================
General
Complete name               : Saaho 2019 Hindi 720p Pre-DVD Rip X264 AAC { TaRa }.mkv
Format                      : Matroska
Format version              : Version 4
File size                   : 1.24 GiB
Duration                    : 2 h 41 min
Overall bit rate            : 1 101 kb/s
===================================================================
Video
ID                          : 1
Format                      : AVC
Format/Info                 : Advanced Video Codec
Format profile              : [email protected]
Format settings             : CABAC / 4 Ref Frames
Format settings, CABAC      : Yes
Format settings, Reference  : 4 frames
Codec ID                    : V_MPEG4/ISO/AVC
Duration                    : 2 h 41 min
Bit rate                    : 977 kb/s
Width                       : 1 280 pixels
Height                      : 544 pixels
Display aspect ratio        : 2.35:1
Frame rate mode             : Constant
Frame rate                  : 23.976 (24000/1001) FPS
Color space                 : YUV
Chroma subsampling          : 4:2:0
Bit depth                   : 8 bits
Scan type                   : Progressive
Bits/(Pixel*Frame)          : 0.059
Stream size                 : 1.10 GiB (88%)
Title                       : .....::::: TaRa :::::.....
Language                    : Hindi
Default                     : Yes
Forced                      : No
===================================================================
Audio
ID                          : 2
Format                      : AAC LC
Format/Info                 : Advanced Audio Codec Low Complexity
Codec ID                    : A_AAC-2
Duration                    : 2 h 41 min
Bit rate                    : 126 kb/s
Channel(s)                  : 2 channels
Channel layout              : L R
Sampling rate               : 44.1 kHz
Frame rate                  : 43.066 FPS (1024 SPF)
Compression mode            : Lossy
Delay relative to video     : -106 ms
Stream size                 : 145 MiB (11%)
Title                       : .....::::: TaRa :::::.....
Language                    : Hindi
Default                     : Yes
Forced                      : No
===================================================================


 
 
 
 
 
 
 











 



Category:Movies > Bollywood
Lang:Hindi
Total Size:1.24 GB
Info Hash:d53fd1ab367379d4ae179df213c1186a163126e2
Added By:SkTaRa
Date Added:31-08-2019 04:21:53
Views:13,934
Hits:3,707

Ratings:Not Yet Rated (Log in to rate it)


Tracker:
udp://tracker.coppersurfer.tk:6969/announce


File List: 


Comments

No comments still posted

Powered by 10 Hamsters v2-svn -|- Page Generated In 1.448861 secs.
-|- RSS FEED
Theme By: Nikkbu