[Login] or [Signup]
Login
Username:
Password:
[Signup]
[Recover Account]


Poll


You must be logged in to view polls



Torrent Details For "Chhichhore 2019 Hindi 720p Pre-DVD Rip x264 AAC { TaRa }.mkv"

Chhichhore 2019 Hindi 720p Pre-DVD Rip x264 AAC { TaRa }.mkv

Download this torrent | Magnet Download
Health:
Seeds: 1,762
Leechers: 181
Completed: 54,352 
Last Checked: 20-10-2019 06:28:29
External Torrent
Update Stats


Poster


iMDB
Title: Chhichhore
Year: 2019
Runtime: 143 minutes
Votes: 400
Rating: 9.1/10
Language: Hindi
Director: Nitesh Tiwari
Writing By: Piyush Gupta,Nikhil Mehrotra,Nitesh Tiwari,
Produced By: Kavan Ahalpara,Sajid Nadiadwala,Ajay Rai,Ankur B. Saraiya,
Music: Pritam Chakraborty Sameeruddin
Cast:
Sushant Singh Rajput as Anni
Shraddha Kapoor as Maya
Varun Sharma as Sexa
Prateik as
Tahir Raj Bhasin as
Naveen Polishetty as Acid
Tushar Pandey as
Saharsh Kumar Shukla as
Rohit Chauhan ">Rohit Chauhan as Chriss Cross
Nalneesh Neel as Pandu
Trailers:
Chhichhore | Dosti Special Trailer| Nitesh Tiwari | Sushant | Shraddha | Sajid N
Chhichhore Official Trailer


Details
Name:Chhichhore 2019 Hindi 720p Pre-DVD Rip x264 AAC { TaRa }.mkv
Description:

Chhichhore 2019 Hindi 720p Pre-DVD Rip x264 AAC { TaRa }.mkv
 

==================================================================
General
Complete name               : Chhichhore 2019 Hindi 720p Pre-DVD Rip x264 AAC { TaRa }.mkv
Format                      : Matroska
Format version              : Version 4
File size                   : 1.12 GiB
Duration                    : 2 h 18 min
Overall bit rate            : 1 158 kb/s
===================================================================
Video
ID                          : 1
Format                      : AVC
Format/Info                 : Advanced Video Codec
Format profile              : [email protected]
Format settings             : CABAC / 4 Ref Frames
Format settings, CABAC      : Yes
Format settings, Reference  : 4 frames
Codec ID                    : V_MPEG4/ISO/AVC
Duration                    : 2 h 18 min
Bit rate                    : 1 000 kb/s
Width                       : 1 280 pixels
Height                      : 544 pixels
Display aspect ratio        : 2.35:1
Frame rate mode             : Constant
Frame rate                  : 23.976 (23976/1000) FPS
Color space                 : YUV
Chroma subsampling          : 4:2:0
Bit depth                   : 8 bits
Scan type                   : Progressive
Bits/(Pixel*Frame)          : 0.060
Stream size                 : 988 MiB (86%)
Title                       : .....::::: TaRa :::::.....
Writing library             : x264 core 132
Language                    : Hindi
Default                     : Yes
Forced                      : No
===================================================================
Audio
ID                          : 2
Format                      : AAC LC
Format/Info                 : Advanced Audio Codec Low Complexity
Codec ID                    : A_AAC-2
Duration                    : 2 h 18 min
Bit rate                    : 158 kb/s
Channel(s)                  : 2 channels
Channel layout              : L R
Sampling rate               : 44.1 kHz
Frame rate                  : 43.066 FPS (1024 SPF)
Compression mode            : Lossy
Delay relative to video     : -84 ms
Stream size                 : 156 MiB (14%)
Title                       : .....::::: TaRa :::::.....
Language                    : Hindi
Default                     : Yes
Forced                      : No
===================================================================


 
 
 
 
 
 
 
 
 
 
 
 











 



Category:Movies > Bollywood
Lang:Hindi
Total Size:1.12 GB
Info Hash:59a56cfc09b276b1c9d1d6ea50eaad254cea7e75
Added By:SkTaRa
Date Added:07-09-2019 15:00:27
Views:11,667
Hits:1,853

Ratings:Not Yet Rated (Log in to rate it)


Tracker:
udp://tracker.coppersurfer.tk:6969/announce


File List: 


Comments

No comments still posted

Powered by 10 Hamsters v2-svn -|- Page Generated In 3.419085 secs.
-|- RSS FEED
Theme By: Nikkbu