[Login] or [Signup]
Login
Username:
Password:
[Signup]
[Recover Account]


Poll


You must be logged in to view polls



Torrent Details For "Housefull 4 (2019) Hindi 720p Pre-DVDRip x264 AAC { TaRa }.mkv"

Housefull 4 (2019) Hindi 720p Pre-DVDRip x264 AAC { TaRa }.mkv

Download this torrent | Magnet Download
Health:
Seeds: 264
Leechers: 23
Completed: 4,759 
Last Checked: 13-11-2019 13:06:07
External Torrent
Update Stats


Poster


iMDB
Title: Housefull 4
Year: 2019
Runtime: 145 minutes
Votes: 1599
Rating: 3.2/10
Language: Hindi
Director: Farhad Samji
Writing By: Tasha Bhambra,Sara Bodinar,Sajid Khan,Sparsh Khetarpal,Sajid Nadiadwala,
Produced By: Firuzi Khan,Sajid Nadiadwala,Yogiraj Shetty,Sunny Surani,
Cast:
Akshay Kumar as Prince Bala Dev Singh / Harry
Riteish Deshmukh as Bangdu Maharaj / Roy
Bobby Deol as Dharamputra / Max
Kriti Sanon as Princes Madhu / Kriti
Pooja Hegde as Princes Mala / Pooja
Kriti Kharbanda as Princes Meena / Neha
Rana Daggubati as Raja Gama / Pappu Rangeela
Sammy John Heaney as Samuel Jonas
Sharad Kelkar as Suryabhan / Michael Bhai
Aakash Dabhade as Harry's Friend
Trailers:
Official Trailer


Details
Name:Housefull 4 (2019) Hindi 720p Pre-DVDRip x264 AAC { TaRa }.mkv
Description:

Housefull 4 (2019) Hindi 720p Pre-DVDRip x264 AAC { TaRa }.mkv
 

===================================================================
General
Complete name               : Housefull 4 (2019) Hindi 720p Pre-DVDRip x264 AAC { TaRa }.mkv
Format                      : Matroska
Format version              : Version 4
File size                   : 1.20 GiB
Duration                    : 2 h 12 min
Overall bit rate            : 1 297 kb/s
===================================================================
Video
ID                          : 1
Format                      : AVC
Format/Info                 : Advanced Video Codec
Format profile              : [email protected]
Format settings             : CABAC / 4 Ref Frames
Format settings, CABAC      : Yes
Format settings, Reference  : 4 frames
Codec ID                    : V_MPEG4/ISO/AVC
Duration                    : 2 h 12 min
Bit rate                    : 1 134 kb/s
Width                       : 1 280 pixels
Height                      : 544 pixels
Display aspect ratio        : 2.35:1
Frame rate mode             : Constant
Frame rate                  : 25.000 FPS
Color space                 : YUV
Chroma subsampling          : 4:2:0
Bit depth                   : 8 bits
Scan type                   : Progressive
Bits/(Pixel*Frame)          : 0.065
Stream size                 : 1.05 GiB (88%)
Title                       : .....:::::: TaRa :::::.....
Language                    : Hindi
Default                     : Yes
Forced                      : No
===================================================================
Audio
ID                          : 2
Format                      : AAC LC
Format/Info                 : Advanced Audio Codec Low Complexity
Codec ID                    : A_AAC-2
Duration                    : 2 h 12 min
Bit rate                    : 158 kb/s
Channel(s)                  : 2 channels
Channel layout              : L R
Sampling rate               : 44.1 kHz
Frame rate                  : 43.066 FPS (1024 SPF)
Compression mode            : Lossy
Delay relative to video     : -23 ms
Stream size                 : 150 MiB (12%)
Title                       : .....:::::: TaRa :::::.....
Language                    : Hindi
Default                     : Yes
Forced                      : No
===================================================================


                       











 



Category:Movies > Bollywood
Lang:Hindi
Total Size:1.20 GB
Info Hash:cc3642f5dbc147fb916bcc70b2e67e5c4a2e54e6
Added By:SkTaRa
Date Added:26-10-2019 13:37:04
Views:15,215
Hits:1,648

Ratings:Not Yet Rated (Log in to rate it)


Tracker:
udp://tracker.coppersurfer.tk:6969/announce


File List: 


Comments

No comments still posted

Powered by 10 Hamsters v2-svn -|- Page Generated In 3.453220 secs.
-|- RSS FEED
Theme By: Nikkbu