[Login] or [Signup]
Login
Username:
Password:
[Signup]
[Recover Account]


Poll


You must be logged in to view polls



Torrent Details For "The Fate of the Furious 2017 (1080p Bluray x265 HEVC 10bit AAC ENG 7.1 Hindi 5.1 VKS3385) HDDMR"

The Fate of the Furious 2017 (1080p Bluray x265 HEVC 10bit AAC ENG 7.1 Hindi 5.1 VKS3385) HDDMR

Download this torrent | Magnet Download
Health:
Seeds: 1
Leechers: 0
Completed: 19,286 
Last Checked: 16-11-2018 23:26:00
External Torrent
Update Stats
Download Magnet


Poster


iMDB
Imdb Picture Title: The Fate of the Furious
Year: 2017
Runtime: 136 minutes
Votes: 8308
Rating: 7.5/10
Language: English
Country: USA
All Genres: Action, Crime, Thriller
Plot Outline: When a mysterious woman seduces Dom into the world of terrorism and a betrayal of those closest to him, the crew face trials that will test them as never before.
Tagline: New roads ahead
Director: F. Gary Gray
Writing By: Chris Morgan,Gary Scott Thompson,
Produced By: Ricardo Del Río,Vin Diesel,Michael Fottrell,Santiago Garcia Galvan,Finni Johannsson,Cliff Lanning,Amanda Lewis,Amanda Lewis,Sharon Lopez,F. Valentino Morales,Chris Morgan,Neal H. Moritz,Samantha Vincent,
Music: Brian Tyler
Plot:

Now that Dom and Letty are on their honeymoon and Brian and Mia have retired from the game-and the rest of the crew has been exonerated-the globetrotting team has found a semblance of a normal life. But when a mysterious woman seduces Dom into the world of crime he can't seem to escape and a betrayal of those closest to him, they will face trials that will test them as never before. From the shores of Cuba and the streets of New York City to the icy plains off the arctic Barents Sea, the elite force will crisscross the globe to stop an anarchist from unleashing chaos on the world's stage... and to bring home the man who made them a family.

- Written by harpreet phamber

The family has been doing their normal thing. Everything has been cool with them as it always has. All of a sudden, a mysterious decoy(woman) lured Dom and enthralled him to the state of betrayal.. He betrayed his family and set them to face trials they never imagined to face alone without Dom.

- Written by guyzid

With Dom and Letty on their honeymoon in Cuba, a mysterious woman somehow manages to make Dom betray the family he has fought hard to protect. Now forcing to team up with Mr. nobody and Deckard Shaw, the team must travel from New York City to the icy plains of the Barents Sea to bring home the man who made them a family,

When a mysterious woman seduces Dom into the world of terrorism and a betrayal of those closest to him, the crew face trials that will test them as never before.


Cast:
Vin Diesel as Dom
Jason Statham as Deckard
Dwayne Johnson as Hobbs
Michelle Rodriguez as Letty
Tyrese Gibson as Roman
Ludacris as Tej Parker
Charlize Theron as Cipher
Kurt Russell as Mr. Nobody
Nathalie Emmanuel as Ramsey
Luke Evans as Owen
Trailers:
Trailer #3
Big Game Spot
Official Trailer
Trailer Tease


Watch-Free-HD     Download

Details
Name:The Fate of the Furious 2017 (1080p Bluray x265 HEVC 10bit AAC ENG 7.1 Hindi 5.1 VKS3385) HDDMR
Description:







Name                        : The Fate of the Furious 2017 (1080p Bluray x265 HEVC 10bit AAC ENG 7.1 Hindi 5.1 VKS3385) HDDMR
Size                        : 3.57 GiB
Source                      :  Bluray
Duration                    : 2 h 15 min
Overall bit rate            : 3 761 kb/s
Movie name                  : The Fate of the Furious
Encoded date                : UTC 2017-08-09 03:17:31
Writing application         : mkvmerge v14.0.0 ('Flow') 64bit
Writing library             : libebml v1.3.4 + libmatroska v1.4.5

Video
ID                          : 1
Format                      : HEVC
Format/Info                 : High Efficiency Video Coding
Format profile              : Main [email protected]@Main
Codec ID                    : V_MPEGH/ISO/HEVC
Duration                    : 2 h 15 min
Bit rate                    : 2 751 kb/s
Width                       : 1 920 pixels
Height                      : 804 pixels
Display aspect ratio        : 2.40:1
Frame rate mode             : Constant
Frame rate                  : 23.976 (24000/1001) FPS
Color space                 : YUV
Chroma subsampling          : 4:2:0
Bit depth                   : 10 bits
Bits/(Pixel*Frame)          : 0.074
Stream size                 : 2.61 GiB (73%)
Writing library             : x265 2.4+90-67dcf6e79090:[Windows][GCC 6.2.1][64 bit] 10bit
Default                     : Yes
Forced                      : No

Audio #1
ID                          : 2
Format                      : AAC
Format/Info                 : Advanced Audio Codec
Format profile              : LC
Codec ID                    : A_AAC
Duration                    : 2 h 15 min
Bit rate                    : 607 kb/s
Channel(s)                  : 8 channels
Channel positions           : Front: L C R, Side: L R, Back: L R, LFE
Sampling rate               : 48.0 kHz
Frame rate                  : 46.875 FPS (1024 SPF)
Compression mode            : Lossy
Delay relative to video     : 20 ms
Stream size                 : 591 MiB (16%)
Language                    : English
Default                     : Yes
Forced                      : No

Audio #2
ID                          : 6
Format                      : AC-3
Format/Info                 : Audio Coding 3
Format settings, Endianness : Big
Codec ID                    : A_AC3
Duration                    : 2 h 15 min
Bit rate mode               : Constant
Bit rate                    : 384 kb/s
Channel(s)                  : 6 channels
Channel positions           : Front: L C R, Side: L R, LFE
Sampling rate               : 48.0 kHz
Frame rate                  : 31.250 FPS (1536 SPF)
Bit depth                   : 16 bits
Compression mode            : Lossy
Delay relative to video     : 5 s 400 ms
Stream size                 : 373 MiB (10%)
Title                       : Hindi~VKS3385~HDDMR
Language                    : Hindi
Service kind                : Complete Main
Default                     : No
Forced                      : Yes

Text #1
ID                          : 3
Format                      : VobSub
Muxing mode                 : zlib
Codec ID                    : S_VOBSUB
Codec ID/Info               : Picture based subtitle format used on DVDs
Duration                    : 2 h 4 min
Bit rate                    : 10.9 kb/s
Count of elements           : 1784
Stream size                 : 9.71 MiB (0%)
Language                    : English
Default                     : No
Forced                      : No

Text #2
ID                          : 4
Format                      : VobSub
Muxing mode                 : zlib
Codec ID                    : S_VOBSUB
Codec ID/Info               : Picture based subtitle format used on DVDs
Duration                    : 2 h 14 min
Bit rate                    : 8 033 b/s
Count of elements           : 1536
Stream size                 : 7.75 MiB (0%)
Language                    : French
Default                     : No
Forced                      : No

Text #3
ID                          : 5
Format                      : VobSub
Muxing mode                 : zlib
Codec ID                    : S_VOBSUB
Codec ID/Info               : Picture based subtitle format used on DVDs
Duration                    : 2 h 14 min
Bit rate                    : 7 977 b/s
Count of elements           : 1528
Stream size                 : 7.69 MiB (0%)
Language                    : Spanish
Default                     : No
Forced                      : No

Menu
00:00:00.000                : en:Chapter 01
00:13:08.913                : en:Chapter 02
00:20:30.771                : en:Chapter 03
00:26:38.638                : en:Chapter 04
00:32:26.778                : en:Chapter 05
00:36:40.573                : en:Chapter 06
00:43:35.613                : en:Chapter 07
00:47:45.779                : en:Chapter 08
00:56:00.732                : en:Chapter 09
01:04:08.302                : en:Chapter 10
01:09:08.060                : en:Chapter 11
01:13:24.274                : en:Chapter 12
01:21:25.714                : en:Chapter 13
01:29:29.947                : en:Chapter 14
01:35:12.456                : en:Chapter 15
01:39:55.781                : en:Chapter 16
01:45:00.711                : en:Chapter 17
01:53:01.858                : en:Chapter 18
02:01:51.262                : en:Chapter 19
02:06:45.097                : en:Chapter 20















Category:Movies > HEVC
Lang:Hindi
Total Size:4.38 GB
Info Hash:8c67d06bd4c6f5b82f7ba60297dce6cbe3405acb
Added By:VKS3385
Date Added:09-08-2017 03:20:37
Views:569
Hits:129

Download Torrent

Ratings:Not Yet Rated (Log in to rate it)


Tracker:
udp://tracker.openbittorrent.com:80/announce


File List: 


Comments

<< Previous      Next >>
1 - 2

[Report] Posted: 09-08-2017 at 04:25:27
HDSector



Uploaded: 0.00 B
Downloaded: 0.00 B
Ratio: ---

impressive work . keep rocking

[Report] Posted: 27-08-2017 at 17:38:42
vrushabh



Uploaded: 0.00 B
Downloaded: 0.00 B
Ratio: ---

please upload The Fate of the Furious (2017) BD50 with hindi audio

1 - 2
<< Previous      Next >>


Powered by 10 Hamsters v2-svn -|- Page Generated In 0.488663 secs.
-|- RSS FEED
Theme By: Nikkbu