[Login] or [Signup]
Login
Username:
Password:
[Signup]
[Recover Account]


Poll


You must be logged in to view polls



Torrent Details For "High Priestess (2019) Season 1 Complete Hindi Zee5 Originals 720p WEB-DL x264 1.4GB-1337xHD"

High Priestess (2019) Season 1 Complete Hindi Zee5 Originals 720p WEB-DL x264 1.4GB-1337xHD

Download this torrent | Magnet Download
Health:
Seeds: 0
Leechers: 0
Completed:
Last Checked: 25-04-2019 08:53:34
External Torrent
Update Stats


Poster


iMDB
Title: High Priestess
Year: 2019
Language: Telugu
Director: Pushpa Ignatius
Writing By: Usha Damerla, Shashank ,
Produced By: Krishna Sekhar,
Music: Gopal Rao Parnandi
Cast:
Amala Akkineni as Swathi Reddy
G.V. Bhavani ">G.V. Bhavani as
Brahmaji as
Kishore Kumar G. as
Aadhav Kannadasan as
Nandini Rai as
Varalaxmi Sarathkumar as
Sunaina as
A. Vijayalakshmi ">A. Vijayalakshmi as


Details
Name:High Priestess (2019) Season 1 Complete Hindi Zee5 Originals 720p WEB-DL x264 1.4GB-1337xHD
Description:

 


 

General
Complete name                            : High Priestess (2019) Season 1 Complete Hindi Zee5 Originals 720p WEB-DL x264 1.5GB.mkv
Format                                   : Matroska
Format version                           : Version 4
File size                                : 1.45 GiB
Duration                                 : 4 h 4 min
Overall bit rate                         : 849 kb/s
Movie name                               : www.1337xHD.Mobi
Writing application                      : Lavf58.27.102
Writing library                          : Lavf58.27.102
ErrorDetectionType                       : Per level 1

Video
ID                                       : 1
Format                                   : AVC
Format/Info                              : Advanced Video Codec
Format profile                           : [email protected]
Format settings                          : CABAC / 4 Ref Frames
Format settings, CABAC                   : Yes
Format settings, RefFrames               : 4 frames
Codec ID                                 : V_MPEG4/ISO/AVC
Duration                                 : 4 h 4 min
Bit rate                                 : 1 730 kb/s
Nominal bit rate                         : 748 kb/s
Width                                    : 1 274 pixels
Height                                   : 720 pixels
Display aspect ratio                     : 16:9
Frame rate mode                          : Constant
Frame rate                               : 25.000 FPS
Color space                              : YUV
Chroma subsampling                       : 4:2:0
Bit depth                                : 8 bits
Scan type                                : Progressive
Bits/(Pixel*Frame)                       : 0.075
Stream size                              : 2.95 GiB
Title                                    : www.1337xHD.Mobi
Writing library                          : x264 core 157
Default                                  : Yes
Forced                                   : No

Audio
ID                                       : 2
Format                                   : AAC LC
Format/Info                              : Advanced Audio Codec Low Complexity
Codec ID                                 : A_AAC-2
Duration                                 : 4 h 4 min
Bit rate                                 : 128 kb/s
Channel(s)                               : 1 channel
Channel layout                           : C
Sampling rate                            : 44.1 kHz
Frame rate                               : 43.066 FPS (1024 SPF)
Compression mode                         : Lossy
Delay relative to video                  : -86 ms
Stream size                              : 224 MiB (15%)
Title                                    : www.1337xHD.Mobi
Writing library                          : Lavc58.51.100 libfdk_aac
Language                                 : Hindi
Default                                  : Yes
Forced                                   : No

 
 

 
 
 
 
 
 
 
 
[/center]
Category:Movies > Bollywood
Lang:Hindi
Total Size:1.45 GB
Info Hash:400202b6338ffc3cdf5ba715266d608323fd5311
Added By:HDFilmBoss
Date Added:25-04-2019 08:53:34
Views:2,154
Hits:202

Ratings:Not Yet Rated (Log in to rate it)


Tracker:
udp://tracker.opentrackr.org:1337/announce


File List: 


Comments

No comments still posted

Powered by 10 Hamsters v2-svn -|- Page Generated In 7.225514 secs.
-|- RSS FEED
Theme By: Nikkbu