[Login] or [Signup]
Login
Username:
Password:
[Signup]
[Recover Account]


Poll


You must be logged in to view polls



Torrent Details For "Kyaa Super Kool Hain Hum (2012) HDRip 720p x264 AAC TaRa.mkv"

Kyaa Super Kool Hain Hum (2012) HDRip 720p x264 AAC TaRa.mkv

Download this torrent | Magnet Download
Health:
Seeds: 0
Leechers: 9
Completed:
Last Checked: 21-05-2019 11:12:20
External Torrent
Update Stats


Poster


Details
Name:Kyaa Super Kool Hain Hum (2012) HDRip 720p x264 AAC TaRa.mkv
Description:

 Kyaa Super Kool Hain Hum (2012) Hindi  720p HDRip x264 AAC { TaRa }.mkv



Quote:

===================================================================
General
Complete name               : Kyaa Super Kool Hain Hum (2012) Hindi  720p HDRip x264 AAC { TaRa }.mkv
Format                      : Matroska
Format version              : Version 4 / Version 2
File size                   : 1.16 GiB
Duration                    : 2 h 16 min
Overall bit rate mode       : Variable
Overall bit rate            : 1 220 kb/s
===================================================================
Video
ID                          : 1
Format                      : AVC
Format/Info                 : Advanced Video Codec
Format profile              : [email protected]
Format settings, CABAC      : Yes
Format settings, ReFrames   : 3 frames
Format settings, GOP        : M=4, N=25
Codec ID                    : V_MPEG4/ISO/AVC
Duration                    : 2 h 16 min
Bit rate mode               : Variable
Bit rate                    : 1 122 kb/s
Maximum bit rate            : 40.0 Mb/s
Width                       : 1 280 pixels
Height                      : 544 pixels
Display aspect ratio        : 2.35:1
Frame rate mode             : Constant
Frame rate                  : 25.000 FPS
Color space                 : YUV
Chroma subsampling          : 4:2:0
Bit depth                   : 8 bits
Scan type                   : Progressive
Bits/(Pixel*Frame)          : 0.064
Stream size                 : 1.07 GiB (92%)
Title                       : .....::::: TaRa :::::.....
Language                    : Hindi
Default                     : Yes
Forced                      : No
===================================================================
Audio
ID                          : 2
Format                      : AAC
Format/Info                 : Advanced Audio Codec
Format profile              : LC
Codec ID                    : A_AAC
Duration                    : 2 h 16 min
Bit rate                    : 96.0 kb/s
Channel(s)                  : 2 channels
Channel positions           : Front: L R
Sampling rate               : 48.0 kHz
Frame rate                  : 46.875 FPS (1024 spf)
Compression mode            : Lossy
Delay relative to video     : 9 ms
Stream size                 : 93.2 MiB (8%)
Title                       : .....::::: TaRa :::::.....
Language                    : Hindi
Default                     : Yes
Forced                      : No
===================================================================






































Category:Movies > Bollywood
Lang:Hindi
Total Size:1.16 GB
Info Hash:251218cca62c94facdae83e89f54c89065bf50aa
Added By:SkTaRa
Date Added:31-03-2017 12:40:24
Views:976
Hits:222

Ratings:Not Yet Rated (Log in to rate it)

  


Tracker:
udp://tracker.openbittorrent.com:80/announce

This Torrent also has backup trackers
URLSeedersLeechersCompleted
http://www.skyts.net:6969/announce000
http://www.opentrackr.org/announce000
http://mgtracker.org:2710/announce010
http://5.79.83.193:2710/announce000
http://109.121.134.121:1337/announce000


File List: 


Comments

No comments still posted

Powered by 10 Hamsters v2-svn -|- Page Generated In 3.313481 secs.
-|- RSS FEED
Theme By: Nikkbu