[Login] or [Signup]
Login
Username:
Password:
[Signup]
[Recover Account]


Poll


You must be logged in to view polls



Torrent Details For "BLEEDING STEEL (2017) English 720p HDTC x264- AAC- ESubs - 1GB - Movcr"

BLEEDING STEEL (2017) English 720p HDTC x264- AAC- ESubs - 1GB - Movcr

Download this torrent | Magnet Download
Health:
Seeds: 1,818
Leechers: 1,851
Completed: 2,107 
Last Checked: 02-01-2018 19:17:55
External Torrent
Update Stats
Download Magnet


Poster


iMDB
Imdb Picture Title: Bleeding Steel
Year: 2017
Runtime: 110 minutes
Votes: 58
Rating: 7.0/10
Language: English, Chinese
Country: China, Hong Kong
All Genres: Action, Sci-Fi, Thriller
Plot Outline: Chan stars as a hardened special forces agent who fights to protect a young woman from a sinister criminal gang. At the same time he with feels a special connection to the young woman, like they met in a different life.
Director: Leo Zhang
Writing By: Siwei Cui,Erica Xia-Hou,Leo Zhang,
Produced By: Tara Aucoin,Jackie Chan,Paul Currie,Kyler Huang,Jingya Liu,Kailuo Liu,Sharon Miller,Javier Zhang,
Music: Fei Peng
Cast:
Jackie Chan as
Callan Mulvey as
Tess Haubrich as
Kaitlyn Boyé as Junkie Girl
Damien Garvey as Rick Rogers
Isabelle Wojciechowska as Popcorn Girl
Olga Miller as Female magician's assistant
Kim Gyngell as Scientist
Show Lo as
Amanda Hedges as Ballet Dancer


Watch-Free-HD     Download

Details
Name:BLEEDING STEEL (2017) English 720p HDTC x264- AAC- ESubs - 1GB - Movcr
Description:
BLEEDING STEEL (2017) English 720p HDTC x264- AAC- ESubs - 1GB - Movcr

 http://www.imdb.com/title/tt5813366/

 
General
Complete name                            : www.movcr.com - BLEEDING STEEL (2017) 720p HDTC x264- AAC- ESubs - 1GB - Movcr.mkv
Format                                   : Matroska
Format version                           : Version 4 / Version 2
File size                                : 1.06 GiB
Duration                                 : 1 h 46 min
Overall bit rate                         : 1 420 kb/s
Movie name                               : www.movcr.com Exclusive
Encoded date                             : UTC 2018-01-02 23:21:40
Writing application                      : mkvmerge v17.0.0 ('Be Ur Friend') 64-bit
Writing library                          : libebml v1.3.5 + libmatroska v1.4.8 / Lavf55.22.102

Video
ID                                       : 1
Format                                   : AVC
Format/Info                              : Advanced Video Codec
Format profile                           : [email protected]
Format settings                          : CABAC / 4 Ref Frames
Format settings, CABAC                   : Yes
Format settings, RefFrames               : 4 frames
Codec ID                                 : V_MPEG4/ISO/AVC
Duration                                 : 1 h 46 min
Bit rate                                 : 1 300 kb/s
Width                                    : 1 280 pixels
Height                                   : 720 pixels
Display aspect ratio                     : 16:9
Frame rate mode                          : Variable
Frame rate                               : 23.976 FPS
Color space                              : YUV
Chroma subsampling                       : 4:2:0
Bit depth                                : 8 bits
Scan type                                : Progressive
Bits/(Pixel*Frame)                       : 0.059
Stream size                              : 982 MiB (91%)
Title                                    : www.movcr.com
Writing library                          : x264 core 119
Encoding settings                        : cabac=1 / ref=1 / deblock=1:0:0 / analyse=0x1:0x1 / me=dia / subme=1 / psy=1 / psy_rd=1.00:0.00 / mixed_ref=0 / me_range=16 / chroma_me=1 / trellis=0 / 8x8dct=0 / cqm=0 / deadzone=21,11 / fast_pskip=1 / chroma_qp_offset=0 / threads=4 / sliced_threads=0 / nr=0 / decimate=1 / interlaced=0 / bluray_compat=0 / constrained_intra=0 / bframes=3 / b_pyramid=2 / b_adapt=1 / b_bias=0 / direct=1 / weightb=1 / open_gop=0 / weightp=1 / keyint=250 / keyint_min=25 / scenecut=40 / intra_refresh=0 / rc=abr / mbtree=0 / bitrate=1300 / ratetol=1.0 / qcomp=0.60 / qpmin=0 / qpmax=69 / qpstep=4 / ip_ratio=1.40 / pb_ratio=1.30 / aq=1:1.00
Default                                  : Yes
Forced                                   : No

Audio
ID                                       : 2
Format                                   : MPEG Audio
Format version                           : Version 1
Format profile                           : Layer 3
Format settings                          : Joint stereo
Codec ID                                 : A_MPEG/L3
Codec ID/Hint                            : MP3
Duration                                 : 1 h 46 min
Bit rate mode                            : Constant
Bit rate                                 : 128 kb/s
Channel(s)                               : 2 channels
Sampling rate                            : 48.0 kHz
Frame rate                               : 41.667 FPS (1152 SPF)
Compression mode                         : Lossy
Delay relative to video                  : -63 ms
Stream size                              : 97.4 MiB (9%)
Title                                    : www.movcr.com
Language                                 : English
Default                                  : Yes
Forced                                   : No


                 
Category:Movies > Pre-Releases
Lang:English  English
Total Size:1.09 GB
Info Hash:6b445fc3a46af21a6516fb855f980bacf8e97df5
Added By:MAZE
Date Added:02-01-2018 09:37:02
Views:433
Hits:88

Download Torrent

Ratings:Not Yet Rated (Log in to rate it)


Tracker:
udp://tracker.openbittorrent.com:80/announce


File List: 


Comments

No comments still posted

Powered by 10 Hamsters v2-svn -|- Page Generated In 1.699602 secs.
-|- RSS Feed -|- Feed Info
Theme By: Nikkbu