[Login] or [Signup]
Login
Username:
Password:
[Signup]
[Recover Account]


Poll


You must be logged in to view polls



Torrent Details For "Bleeding Steel 2017 720p HDTC x264 AAC"

Bleeding Steel 2017 720p HDTC x264 AAC

Download this torrent | Magnet Download
Health:
Seeds: 1,031
Leechers: 886
Completed: 304,926 
Last Checked: 27-02-2018 13:17:53
External Torrent
Update Stats
Download Magnet


Poster


Watch-Free-HD     Download

Details
Name:Bleeding Steel 2017 720p HDTC x264 AAC
Description:



General
Format                      : Matroska
Format version              : Version 4 / Version 2
File size                   : 904 MiB
Duration                    : 1 h 46 min
Overall bit rate            : 1 188 kb/s

Video
ID                          : 1
Format                      : AVC
Format/Info                 : Advanced Video Codec
Format profile              : [email protected]
Format settings             : CABAC / 4 Ref Frames
Format settings, CABAC      : Yes
Format settings, ReFrames   : 4 frames
Codec ID                    : V_MPEG4/ISO/AVC
Duration                    : 1 h 46 min
Bit rate                    : 1 100 kb/s
Width                       : 1 290 pixels
Height                      : 552 pixels
Display aspect ratio        : 2.35:1
Frame rate mode             : Constant
Frame rate                  : 25.000 FPS
Color space                 : YUV
Chroma subsampling          : 4:2:0
Bit depth                   : 8 bits
Scan type                   : Progressive
Bits/(Pixel*Frame)          : 0.062
Stream size                 : 829 MiB (92%)
Writing library             : x264 core 148 r2708 86b7198
Default                     : Yes
Forced                      : No

Audio
ID                          : 2
Format                      : AAC
Format/Info                 : Advanced Audio Codec
Format profile              : LC
Codec ID                    : A_AAC-2
Duration                    : 1 h 46 min
Bit rate                    : 96.0 kb/s
Channel(s)                  : 2 channels
Channel positions           : Front: L R
Sampling rate               : 44.1 kHz
Frame rate                  : 43.066 FPS (1024 SPF)
Compression mode            : Lossy
Stream size                 : 73.1 MiB (8%)
Language                    : English
Default                     : Yes
Forced                      : No





 
 
 
 http://pichub.site/image/au3J
 http://pichub.site/image/aU8h
 http://pichub.site/image/aNa5
 http://pichub.site/image/axqr
 http://pichub.site/image/av5j

Category:Movies > Pre-Releases
Lang:English  English
Total Size:904.03 MB
Info Hash:4096aced9c19969dd70f95aca6ac69ee47ecdc36
Added By:Freaky
Date Added:03-01-2018 17:40:57
Views:586
Hits:238

Download Torrent

Ratings:Not Yet Rated (Log in to rate it)


Tracker:
udp://tracker.coppersurfer.tk:6969/announce


File List: 


Comments

No comments still posted

Powered by 10 Hamsters v2-svn -|- Page Generated In 0.041430 secs.
-|- RSS FEED
Theme By: Nikkbu