[Login] or [Signup]
Login
Username:
Password:
[Signup]
[Recover Account]


Poll


You must be logged in to view polls



Torrent Details For "Happy Death Day 2017 1080p BRRip x264 AAC 5.1 ESub-Hon3y"

Happy Death Day 2017 1080p BRRip x264 AAC 5.1 ESub-Hon3y

Download this torrent | Magnet Download
Health:
Seeds: 295
Leechers: 181
Completed: 14,050 
Last Checked: 12-01-2018 03:46:07
External Torrent
Update Stats
Download Magnet


Poster


iMDB
Imdb Picture Title: Happy Death Day
Year: 2017
Runtime: 96 minutes
Votes: 6189
Rating: 6.7/10
Language: English
Country: USA
All Genres: Horror, Mystery, Thriller
Plot Outline: A college student must relive the day of her murder over and over again, in a loop that will end only when she discovers her killer's identity.
Tagline: Get Up. Live Your Day. Get Killed. Again.
Director: Christopher Landon
Writing By: Scott Lobdell,
Produced By: John Baldecchi,Jason Blum,Jeanette Brill,Phillip Dawe,Angela Mancuso,Seth William Meier,Couper Samuelson,Beatriz Sequeira,Ryan Turek,
Music: Bear McCreary
Cast:
Jessica Rothe as Tree Gelbman
Israel Broussard as Carter Davis
Ruby Modine as Lori Spengler
Charles Aitken as Gregory Butler
Laura Clifton as Stephanie Butler
Jason Bayle as David Gelbman
Rob Mello as Joseph Tombs
Rachel Matthews as Danielle Bouseman
Ramsey Anderson as Keith Lumbly
Brady Lewis as Frat Brother
Trailers:
'Happy Death Day' Trailer With Director's Commentary
Now Playing
In Theatres Friday 13th
Trailer #1


Watch-Free-HD     Download

Details
Name:Happy Death Day 2017 1080p BRRip x264 AAC 5.1 ESub-Hon3y
Description:
Happy Death Day 2017 1080p BRRip x264 AAC 5.1 ESub-Hon3y

Source: HDChina
Format                      : Matroska
Format version              : Version 4 / Version 2
File size                   : 1.90 GiB
Duration                    : 1 h 36 min
Overall bit rate            : 2 830 kb/s
Movie name                  : Happy Death Day 2017- Hon3y


Video
ID                          : 1
Format                      : AVC
Format/Info                 : Advanced Video Codec
Format profile              : [email protected]
Format settings, CABAC      : Yes
Format settings, RefFrames  : 5 frames
Codec ID                    : V_MPEG4/ISO/AVC
Duration                    : 1 h 36 min
Bit rate                    : 2 500 kb/s
Width                       : 1 920 pixels
Height                      : 804 pixels
Display aspect ratio        : 2.40:1
Frame rate mode             : Constant
Frame rate                  : 23.976 (24000/1001) FPS


Audio
ID                          : 2
Format                      : AAC
Format/Info                 : Advanced Audio Codec
Format profile              : LC
Codec ID                    : A_AAC
Duration                    : 1 h 36 min
Bit rate                    : 320 kb/s
Channel(s)                  : 6 channels
Channel positions           : Front: L C R, Side: L R, LFE
Sampling rate               : 48.0 kHz
Frame rate                  : 46.875 FPS (1024 SPF)
Compression mode            : Lossy
Delay relative to video     : -21 ms
Stream size                 : 220 MiB (11%)
Title                       : Surround
Language                    : English
Default                     : Yes
Forced                      : No

Text
ID                          : 3
Format                      : PGS
Muxing mode                 : zlib
Codec ID                    : S_HDMV/PGS
Codec ID/Info               : Picture based subtitle format used on BDs/HD-DVDs
Duration                    : 1 h 29 min
Bit rate                    : 40.2 kb/s
Count of elements           : 2894
Stream size                 : 25.6 MiB (1%)
Language                    : English
Default                     : No
Forced                      : No

Menu
00:00:00.000                : :00:00:00.000
00:04:54.461                : :00:04:54.461
00:10:26.000                : :00:10:26.000
00:14:10.850                : :00:14:10.683
00:21:46.722                : :00:21:46.722
00:25:08.799                : :00:25:08.799
00:29:37.901                : :00:29:37.859
00:33:09.321                : :00:33:09.321
00:37:50.143                : :00:37:50.143
00:41:46.170                : :00:41:46.170
00:44:54.192                : :00:44:54.191
00:53:07.976                : :00:53:07.935
00:57:28.362                : :00:57:28.362
01:00:18.448                : :01:00:18.448
01:07:41.558                : :01:07:41.557
01:12:16.290                : :01:12:16.290
01:16:35.132                : :01:16:35.090
01:21:17.081                : :01:21:17.081
01:27:13.770                : :01:27:13.645
01:30:24.252                : :01:30:24.169

           
Category:Movies > 1080P Bluray
Lang:English  English
Total Size:1.90 GB
Info Hash:10d7d77eb54cdb6ce82691244c022d9c11d800d5
Added By:Hon3y
Date Added:06-01-2018 13:47:12
Views:530
Hits:58

Download Torrent

Ratings:Not Yet Rated (Log in to rate it)


Tracker:
udp://tracker.coppersurfer.tk:6969/announce


File List: 


Comments

No comments still posted

Powered by 10 Hamsters v2-svn -|- Page Generated In 2.287173 secs.
-|- RSS FEED
Theme By: Nikkbu