[Login] or [Signup]
Login
Username:
Password:
[Signup]
[Recover Account]


Poll


You must be logged in to view polls



Torrent Details For "The Shape of Water 2017 720p DVDScr x264"

The Shape of Water 2017 720p DVDScr x264

Download this torrent | Magnet Download
Health:
Seeds: 1,228
Leechers: 768
Completed: 3,107 
Last Checked: 09-01-2018 05:15:21
External Torrent
Update Stats
Download Magnet


Poster
No poster


Watch-Free-HD     Download

Details
Name:The Shape of Water 2017 720p DVDScr x264
Description:

 

General
Format                      : Matroska
Format version              : Version 4 / Version 2
File size                   : 1.22 GiB
Duration                    : 2 h 2 min
Overall bit rate            : 1 416 kb/s

Video
ID                          : 1
Format                      : AVC
Format/Info                 : Advanced Video Codec
Format profile              : [email protected]
Format settings             : CABAC / 4 Ref Frames
Format settings, CABAC      : Yes
Format settings, ReFrames   : 4 frames
Codec ID                    : V_MPEG4/ISO/AVC
Duration                    : 2 h 2 min
Bit rate                    : 1 300 kb/s
Width                       : 1 280 pixels
Height                      : 684 pixels
Display aspect ratio        : 1.85:1
Frame rate mode             : Constant
Frame rate                  : 30.000 FPS
Color space                 : YUV
Chroma subsampling          : 4:2:0
Bit depth                   : 8 bits
Scan type                   : Progressive
Bits/(Pixel*Frame)          : 0.049
Stream size                 : 1.10 GiB (91%)
Writing library             : x264 core 148 r2708 86b7198
Default                     : Yes
Forced                      : No

Audio
ID                          : 2
Format                      : AAC
Format/Info                 : Advanced Audio Codec
Format profile              : LC
Codec ID                    : A_AAC-2
Duration                    : 2 h 2 min
Bit rate                    : 128 kb/s
Channel(s)                  : 2 channels
Channel positions           : Front: L R
Sampling rate               : 44.1 kHz
Frame rate                  : 43.066 FPS (1024 SPF)
Compression mode            : Lossy
Stream size                 : 113 MiB (9%)
Language                    : English
Default                     : Yes
Forced                      : No





 
 
 
 http://pichub.site/image/E8yh
 http://pichub.site/image/EBFr
 http://pichub.site/image/Egdk
 http://pichub.site/image/Eu3v
 http://pichub.site/image/EmuQ
 http://pichub.site/image/ENId

Category:Movies > Pre-Releases
Lang:English  English
Total Size:1.22 GB
Info Hash:c8f3a62918cb356d65ddfec787d7b6d7ee90f5c1
Added By:Freaky
Date Added:08-01-2018 18:29:40
Views:191
Hits:25

Download Torrent

Ratings:Not Yet Rated (Log in to rate it)


Tracker:
udp://tracker.coppersurfer.tk:6969/announce


File List: 


Comments

No comments still posted

Powered by 10 Hamsters v2-svn -|- Page Generated In 0.003251 secs.
-|- RSS Feed -|- Feed Info
Theme By: Nikkbu