[Login] or [Signup]
Login
Username:
Password:
[Signup]
[Recover Account]


Poll


You must be logged in to view polls



Torrent Details For "Fear The Walking Dead Season 1 2015 720p BD Dual Audio English Hindi GD"

Fear The Walking Dead Season 1 2015 720p BD Dual Audio English Hindi GD

Download this torrent | Magnet Download
Health:
Seeds: 19
Leechers: 1,791
Completed:
Last Checked: 10-01-2018 11:58:40
External Torrent
Update Stats
Download Magnet


Poster


iMDB
Imdb Picture Title: Fear the Walking Dead
Year: 2015
Runtime: 44 minutes
Votes: 75889
Rating: 7.1/10
Language: English
Country: USA
All Genres: Drama, Horror, Sci-Fi, Thriller
Plot Outline: A Walking Dead spin-off, set in Los Angeles, following two families who must band together to survive the undead apocalypse.
Tagline: Death knows no borders (Season 2)
Director: Adam Davidson
Stefan Schwartz
Andrew Bernstein
Kari Skogland
Deborah Chow
Uta Briesewitz
Kate Dennis
Michael McDonough
Gerardo Naranjo
Daniel Sackheim
Christoph Schrewe
Michael Uppendahl
Craig Zisk
Paco Cabezas
Alex Garcia Lopez
Daniel Stamm
Writing By: Dave Erickson,Robert Kirkman,Charlie Adlard,Tony Moore,Kate Barnow,Wes Brown,Suzanne Heathcote,David Wiener,Brian Buckner,Carla Ching,Kate Erickson,Alan Page,Jack LoGiudice,Meaghan Oppenheimer,Marco Ramirez,Brett C. Leonard,Lauren Signorino,Wes Brown,Mark Richard,Ryan Scott,Ryan Scott,
Produced By: David Alpert,Dave Erickson,Gale Anne Hurd,Robert Kirkman,Greg Nicotero,Kenneth Requa,David Wiener,Pablo Cruz,Arturo Sampson,Bob Lewis,Christian Agypt,Kate Barnow,Brian Buckner,Luisa Gomez de Silva,Alan Page,Andrew Bernstein,Frank Hildebrand,Adam Davidson,Brett C. Leonard,Craig Forrest,Ron French,Bill Johnson,Jack LoGiudice,Marco Ramirez,Avram 'Butch' Kaplan,
Music: Paul Haslinger
Plot:

Spin off series of The Walking Dead that portrays the beginning events of the zombie apocalypse in the West coast during the same time frame when the city of Atlanta was falling under attack, while Rick was in a coma at the local hospital. It shows how the strain was already in full effect in the south while it's just starting in California.

Living in the same universe as The Walking Dead, Fear the Walking Dead is a gritty drama that explores the onset of the undead apocalypse through the lens of a fractured family. Set in a city where people come to escape, shield secrets, and bury their pasts, a mysterious outbreak threatens to disrupt what little stability high school guidance counselor Madison Clark and English teacher Travis Manawa have managed to assemble. The everyday pressure of blending two families while dealing with resentful, escapist, and strung out children takes a back seat when society begins to break down. A forced evolution, a necessary survival of the fittest takes hold, and our dysfunctional family must either reinvent themselves or embrace their darker histories.

A Walking Dead spin-off, set in Los Angeles, following two families who must band together to survive the undead apocalypse.


Cast:
Kim Dickens as Madison Clark
Frank Dillane as Nick Clark
Alycia Debnam-Carey as Alicia Clark
Mercedes Mason as Ofelia Salazar
Colman Domingo as Victor Strand
Cliff Curtis as Travis Manawa
Danay Garcia as Luciana Galvez
Lorenzo James Henrie as Chris Manawa
Daniel Sharman as Troy Otto
Michael William Freeman as Blake Sarno
Trailers:
Season 2, Episode 7 Preview
Fear the Walking Dead - First Look Teaser - Nick's Escape
Season 2 Teaser: "No Safe Harbor"
Season 2 Trailer
Season 2B Comic-Con Trailer
Fear the Walking Dead - Comic-Con
Season 2 - First Look


Watch-Free-HD     Download

Details
Name:Fear The Walking Dead Season 1 2015 720p BD Dual Audio English Hindi GD
Description:

Format                         : Matroska
Format version                 : Version 4 / Version 2
File size                      : 308 MiB
Overall bit rate               : 667 kb/s
Movie name                     : 1 GOPISAHI

Video
Format                         : AVC
Codec ID                       : V_MPEG4/ISO/AVC
Bit rate                       : 500 kb/s
Width                          : 1 280 pixels
Height                         : 720 pixels
Display aspect ratio           : 16:9
Frame rate mode                : Constant
Frame rate                     : 23.976 (24000/1001) FPS
Stream size                    : 231 MiB (75%)
Writing library                : x264 core 148 r2708 86b7198

Audio #1
Format                         : AAC
Bit rate                       : 81.9 kb/s
Channel(s)                     : 6 channels
Channel positions              : Front: L C R, Side: L R, LFE
Sampling rate                  : 44.1 kHz
Frame rate                     : 43.066 FPS (1024 SPF)
Stream size                    : 37.8 MiB (12%)
Language                       : Hindi

Audio #2
Format                         : AAC
Bit rate                       : 82.2 kb/s
Channel(s)                     : 6 channels
Frame rate                     : 43.066 FPS (1024 SPF)
Stream size                    : 38.0 MiB (12%)
Title                          : GOPISAHI
Language                       : English


Category:Movies > Hollywood Dub
Lang:Hindi
Total Size:1.29 GB
Info Hash:3d896598d325691eba587f76de88cee2055f6490
Added By:gopisahi
Date Added:10-01-2018 04:33:06
Views:1,315
Hits:210

Download Torrent

Ratings:Not Yet Rated (Log in to rate it)


Tracker:
http://ipv4.tracker.harry.lu/announce

This Torrent also has backup trackers
URLSeedersLeechersCompleted
http://ipv4.tracker.harry.lu/announce42840
http://ipv4.tracker.harry.lu:80/announce42840
http://163.172.180.68:80/announce42840
http://t.nyaatracker.com/announce000
http://tracker.devil-torrents.pl:80/announce000
http://tracker.devil-torrents.pl/announce000
http://open.kickasstracker.com/announce000
http://163.172.180.68/announce42840
http://t.nyaatracker.com:80/announce000
http://retracker.mgts.by:80/announce000
http://45.33.11.224/announce000
http://tracker.torrentyorg.pl:80/announce12730
http://pt.lax.mx:80/announce000


File List: 


Comments

No comments still posted

Powered by 10 Hamsters v2-svn -|- Page Generated In 0.281915 secs.
-|- RSS FEED
Theme By: Nikkbu