[Login] or [Signup]
Login
Username:
Password:
[Signup]
[Recover Account]


Poll


You must be logged in to view polls



Torrent Details For "Parker 2013 UNRATED 720p BluRay x264 Dual Audio [Hindi - English 2.0] ESub"

Parker 2013 UNRATED 720p BluRay x264 Dual Audio [Hindi - English 2.0] ESub

Download this torrent | Magnet Download
Health:
Seeds: 722
Leechers: 383
Completed: 4,375 
Last Checked: 13-01-2018 17:31:29
External Torrent
Update Stats
Download Magnet


Poster
No poster


Watch-Free-HD     Download

Details
Name:Parker 2013 UNRATED 720p BluRay x264 Dual Audio [Hindi - English 2.0] ESub
Description:

 

General
Format                      : Matroska
Format version              : Version 4 / Version 2
File size                   : 978 MiB
Duration                    : 1 h 58 min
Overall bit rate            : 1 152 kb/s

Video
ID                          : 1
Format                      : AVC
Format/Info                 : Advanced Video Codec
Format profile              : [email protected]
Format settings             : CABAC / 8 Ref Frames
Format settings, CABAC      : Yes
Format settings, ReFrames   : 8 frames
Codec ID                    : V_MPEG4/ISO/AVC
Duration                    : 1 h 58 min
Bit rate                    : 926 kb/s
Width                       : 1 280 pixels
Height                      : 536 pixels
Display aspect ratio        : 2.40:1
Frame rate mode             : Constant
Frame rate                  : 23.976 (24000/1001) FPS
Original frame rate         : 23.976 (23976/1000) FPS
Color space                 : YUV
Chroma subsampling          : 4:2:0
Bit depth                   : 8 bits
Scan type                   : Progressive
Bits/(Pixel*Frame)          : 0.056
Stream size                 : 786 MiB (80%)
Writing library             : x264 core 132 r2 3b1f1f7
Default                     : Yes
Forced                      : No

Audio #1
ID                          : 2
Format                      : AAC
Format/Info                 : Advanced Audio Codec
Format profile              : LC
Codec ID                    : A_AAC-2
Duration                    : 1 h 58 min
Bit rate                    : 128 kb/s
Channel(s)                  : 2 channels
Channel positions           : Front: L R
Sampling rate               : 44.1 kHz
Frame rate                  : 43.066 FPS (1024 SPF)
Compression mode            : Lossy
Stream size                 : 109 MiB (11%)
Language                    : Hindi
Default                     : Yes
Forced                      : No

Audio #2
ID                          : 3
Format                      : AAC
Format/Info                 : Advanced Audio Codec
Format profile              : LC
Codec ID                    : A_AAC-2
Duration                    : 1 h 58 min
Bit rate                    : 96.0 kb/s
Channel(s)                  : 2 channels
Channel positions           : Front: L R
Sampling rate               : 48.0 kHz
Frame rate                  : 46.875 FPS (1024 SPF)
Compression mode            : Lossy
Stream size                 : 81.3 MiB (8%)
Language                    : English
Default                     : No
Forced                      : No

Text
ID                          : 4
Format                      : UTF-8
Codec ID                    : S_TEXT/UTF8
Codec ID/Info               : UTF-8 Plain Text
Duration                    : 1 h 51 min
Bit rate                    : 65 b/s
Count of elements           : 1683
Stream size                 : 53.9 KiB (0%)
Default                     : Yes
Forced                      : No





 
 
 http://pichub.site/image/7nwV
 http://pichub.site/image/7sxT
 http://pichub.site/image/73TN
 http://pichub.site/image/71ED


Category:Movies > Hollywood Dub
Lang:Hindi
Total Size:978.21 MB
Info Hash:1ef15596bd1fb7272587e43f74e775a77eb0df0e
Added By:Freaky
Date Added:10-01-2018 07:16:16
Views:1,297
Hits:189

Download Torrent

Ratings:Not Yet Rated (Log in to rate it)


Tracker:
udp://tracker.coppersurfer.tk:6969/announce


File List: 


Comments

No comments still posted

Powered by 10 Hamsters v2-svn -|- Page Generated In 0.041915 secs.
-|- RSS Feed -|- Feed Info
Theme By: Nikkbu