[Login] or [Signup]
Login
Username:
Password:
[Signup]
[Recover Account]


Poll


You must be logged in to view polls



Torrent Details For "Ferdinand 2017 HDCAM x264 AC3-TiTAN.mkv"

Ferdinand 2017 HDCAM x264 AC3-TiTAN.mkv

Download this torrent | Magnet Download
Health:
Seeds: 162
Leechers: 270
Completed: 279 
Last Checked: 10-01-2018 10:36:24
External Torrent
Update Stats
Download Magnet


Poster
No poster


iMDB
Imdb Picture Title: Ferdinand
Year: 2017
Runtime: 108 minutes
Votes: 1969
Rating: 6.8/10
Language: English
Country: USA
All Genres: Animation, Adventure, Comedy, Family, Fantasy
Plot Outline: After Ferdinand, a bull with a big heart, is mistaken for a dangerous beast, he is captured and torn from his home. Determined to return to his family, he rallies a misfit team on the ultimate adventure.
Tagline: You Will Bullieve
Director: Carlos Saldanha
Writing By: Munro Leaf,Robert Lawson,Ron Burch,David Kidd,Don Rhymer,Robert L. Baird,Tim Federle,Brad Copeland,
Produced By: Bruce Anderson,John Davis,Lori Forte,Lisa Marie Stetler,Chris Wedge,
Music: John Powell
Cast:
Jack Gore as Young Valiente
Jet Jurgensmeyer as Young Guapo
Nile Diaz as Young Bones
Colin H. Murphy as Young Ferdinand
Carlos Saldanha as Screaming Matador / Additional Voices
Jeremy Sisto as Ferdinand's Father
Bobby Cannavale as Valiente's Father / Valiente
Raúl Esparza as Moreno
Luis Carlos de La Lombana as Ranch Hand #1
Juanes as Juan
Trailers:
International Trailer
New Trailer
Trailer #2
Trailer #1


Watch-Free-HD     Download

Details
Name:Ferdinand 2017 HDCAM x264 AC3-TiTAN.mkv
Description:
            

 http://www.imdb.com/title/tt3411444/


pretty nice cam here, video is real good, audio is cam, but very understandable. for the kiddies. Enjoy


General

Format                      : Matroska
Format version              : Version 2
File size                   : 1.32 GiB
Duration                    : 1 h 37 min
Overall bit rate mode       : Variable
Overall bit rate            : 1 944 kb/s
Encoded date                : UTC 2018-01-10 01:05:38
Writing application         : mkvmerge v19.0.0 ('Brave Captain') 64-bit
Writing library             : libebml v1.3.5 + libmatroska v1.4.8

Video
ID                          : 1
Format                      : AVC
Format/Info                 : Advanced Video Codec
Format profile              : [email protected]
Format settings             : CABAC / 3 Ref Frames
Format settings, CABAC      : Yes
Format settings, ReFrames   : 3 frames
Codec ID                    : V_MPEG4/ISO/AVC
Duration                    : 1 h 37 min
Bit rate mode               : Variable
Bit rate                    : 1 750 kb/s
Maximum bit rate            : 40.0 Mb/s
Width                       : 720 pixels
Height                      : 330 pixels
Display aspect ratio        : 2.2:1
Frame rate mode             : Constant
Frame rate                  : 29.970 (29970/1000) FPS
Original frame rate         : 29.970 (30000/1001) FPS
Color space                 : YUV
Chroma subsampling          : 4:2:0
Bit depth                   : 8 bits
Scan type                   : Progressive
Bits/(Pixel*Frame)          : 0.246
Stream size                 : 1.19 GiB (90%)
Default                     : Yes
Forced                      : No
Color range                 : Full
Color primaries             : BT.709
Transfer characteristics    : BT.709
Matrix coefficients         : BT.709

Audio
ID                          : 2
Format                      : AC-3
Format/Info                 : Audio Coding 3
Codec ID                    : A_AC3
Duration                    : 1 h 37 min
Bit rate mode               : Constant
Bit rate                    : 192 kb/s
Channel(s)                  : 2 channels
Channel positions           : Front: L R
Sampling rate               : 44.1 kHz
Frame rate                  : 28.711 FPS (1536 SPF)
Bit depth                   : 16 bits
Compression mode            : Lossy
Stream size                 : 134 MiB (10%)
Service kind                : Complete Main
Default                     : Yes
Forced                      : No
Category:Movies > Pre-Releases
Lang:English  English
Total Size:1.32 GB
Info Hash:aca25cee875ee41d417b3d09e5fa82ecaa0c27a2
Added By:juggs
Date Added:10-01-2018 09:05:21
Views:243
Hits:19

Download Torrent

Ratings:Not Yet Rated (Log in to rate it)


Tracker:
udp://tracker.coppersurfer.tk:6969/announce


File List: 


Comments

No comments still posted

Powered by 10 Hamsters v2-svn -|- Page Generated In 0.896960 secs.
-|- RSS FEED
Theme By: Nikkbu