[Login] or [Signup]
Login
Username:
Password:
[Signup]
[Recover Account]


Poll


You must be logged in to view polls



Torrent Details For "Haseena Parkar (2017) - 2CD - HD Rip[Xvid - Mp3]"

Haseena Parkar (2017) - 2CD - HD Rip[Xvid - Mp3]

Download this torrent | Magnet Download
Health:
Seeds: 42
Leechers: 0
Completed:
Last Checked: 12-01-2018 06:27:08
External Torrent
Update Stats
Download Magnet


Poster


iMDB
Imdb Picture Title: Haseena
Year: 2017
Runtime: 135 minutes
Votes: 49
Rating: 5.2/10
Country: India
All Genres: Biography, Crime, Thriller
Plot Outline: This is the story of the slightly-less-notorious sister of a notorious gangster.
Tagline: The Queen of Mumbai
Director: Apoorva Lakhia
Writing By: Suresh Nair,Chintan Gandhi,
Produced By: Sameer Antulay,Prashant Desai,Nahid Khan,Sameer A. Shaikh,Babu Tyagi,
Music: Amar Mohile
Cast:
Shraddha Kapoor as Haseena
Ankur Bhatia as Ibrahim Parkar
Siddhant Kapoor as Dawood
Uttam Halder as Dawood's Friend
Charanpreet Singh as David Pardesi
Rajesh Tailang as Shyam Keswani
Satendra Bagasi as
Laksh Lalwani as
Raj as
Nitin Singh as


Watch-Free-HD     Download

Details
Name:Haseena Parkar (2017) - 2CD - HD Rip[Xvid - Mp3]
Description:
Haseena Parkar (2017) - 2CD -
HD Rip[Xvid - Mp3]  
 





General
Format                                   : AVI
Format/Info                              : Audio Video Interleave
File size                                : 1.40 GiB
Duration                                 : 2 h 18 min

Video
ID                                       : 0
Format                                   : MPEG-4 Visual
Format profile                           : Advanced [email protected]
Format settings                          : BVOP1
Format settings, BVOP                    : 1
Format settings, QPel                    : No
Format settings, GMC                     : No warppoints
Format settings, Matrix                  : Default (H.263)
Codec ID                                 : XVID
Duration                                 : 2 h 18 min
Bit rate                                 : 1 315 kb/s
Width                                    : 720 pixels
Height                                   : 304 pixels
Display aspect ratio                     : 2.35:1
Frame rate                               : 25.000 FPS
Color space                              : YUV
Chroma subsampling                       : 4:2:0
Bit depth                                : 8 bits
Scan type                                : Progressive
Compression mode                         : Lossy
Bits/(Pixel*Frame)                       : 0.240
Stream size                              : 1.27 GiB (91%)

Audio
ID                                       : 1
Format                                   : MPEG Audio
Format version                           : Version 1
Format profile                           : Layer 3
Format settings                          : Joint stereo / MS Stereo
Codec ID                                 : 55
Codec ID/Hint                            : MP3
Duration                                 : 2 h 18 min
Bit rate mode                            : Constant
Bit rate                                 : 128 kb/s
Channel(s)                               : 2 channels
Sampling rate                            : 48.0 kHz
Stream size                              : 127 MiB (9%)

Thumbnail





Category:Movies > HDRips
Lang:Hindi
Total Size:1.40 GB
Info Hash:1a450a21aa8cbf4b51262927e882ce94a1e71425
Added By:Pherarim
Date Added:11-01-2018 20:32:34
Views:195
Hits:10

Download Torrent

Ratings:Not Yet Rated (Log in to rate it)

  


Tracker:
udp://9.rarbg.me:2710/announce


File List: 


Comments

No comments still posted

Powered by 10 Hamsters v2-svn -|- Page Generated In 1.451643 secs.
-|- RSS FEED
Theme By: Nikkbu