[Login] or [Signup]
Login
Username:
Password:
[Signup]
[Recover Account]


Poll


You must be logged in to view polls



Torrent Details For " Haseena Parkar (2017) - 2CD - HD Rip[x264 - AC3(5.1Ch)]"

Haseena Parkar (2017) - 2CD - HD Rip[x264 - AC3(5.1Ch)]

Download this torrent | Magnet Download
Health:
Seeds: 39
Leechers: 0
Completed: 19 
Last Checked: 14-01-2018 01:41:41
External Torrent
Update Stats
Download Magnet


Poster


iMDB
Imdb Picture Title: Haseena
Year: 2017
Runtime: 135 minutes
Votes: 49
Rating: 5.2/10
Country: India
All Genres: Biography, Crime, Thriller
Plot Outline: This is the story of the slightly-less-notorious sister of a notorious gangster.
Tagline: The Queen of Mumbai
Director: Apoorva Lakhia
Writing By: Suresh Nair,Chintan Gandhi,
Produced By: Sameer Antulay,Prashant Desai,Nahid Khan,Sameer A. Shaikh,Babu Tyagi,
Music: Amar Mohile
Cast:
Shraddha Kapoor as Haseena
Ankur Bhatia as Ibrahim Parkar
Siddhant Kapoor as Dawood
Uttam Halder as Dawood's Friend
Charanpreet Singh as David Pardesi
Rajesh Tailang as Shyam Keswani
Satendra Bagasi as
Laksh Lalwani as
Raj as
Nitin Singh as


Watch-Free-HD     Download

Details
Name: Haseena Parkar (2017) - 2CD - HD Rip[x264 - AC3(5.1Ch)]
Description:
 Haseena Parkar (2017) - 2CD -
HD Rip[x264 - AC3(5.1Ch)]  
 





General
Format                                   : Matroska
Format version                           : Version 2
File size                                : 1.40 GiB
Duration                                 : 2 h 24 min

Video
ID                                       : 1
Format                                   : AVC
Format/Info                              : Advanced Video Codec
Format profile                           : [email protected]
Format settings                          : CABAC / 4 Ref Frames
Format settings, CABAC                   : Yes
Format settings, RefFrames               : 4 frames
Codec ID                                 : V_MPEG4/ISO/AVC
Duration                                 : 2 h 24 min
Bit rate                                 : 1 195 kb/s
Width                                    : 720 pixels
Height                                   : 304 pixels
Display aspect ratio                     : 2.35:1
Frame rate mode                          : Constant
Frame rate                               : 25.000 FPS
Color space                              : YUV
Chroma subsampling                       : 4:2:0
Bit depth                                : 8 bits
Scan type                                : Progressive
Bits/(Pixel*Frame)                       : 0.218
Stream size                              : 1.21 GiB (86%)

Audio
ID                                       : 2
Format                                   : AC-3
Format/Info                              : Audio Coding 3
Codec ID                                 : A_AC3
Duration                                 : 2 h 24 min
Bit rate mode                            : Constant
Bit rate                                 : 192 kb/s
Channel(s)                               : 5 channels
Channel positions                        : Front: L C R, Side: L R
Sampling rate                            : 48.0 kHz
Stream size                              : 199 MiB (14%)


Thumbnail






Category:Movies > HDRips
Lang:Hindi
Total Size:1.40 GB
Info Hash:aeeeaa46348dd252029806393ca00b8b61dc3519
Added By:Pherarim
Date Added:11-01-2018 20:33:10
Views:155
Hits:17

Download Torrent

Ratings:Not Yet Rated (Log in to rate it)

  


Tracker:
udp://9.rarbg.me:2710/announce


File List: 


Comments

No comments still posted

Powered by 10 Hamsters v2-svn -|- Page Generated In 1.083081 secs.
-|- RSS Feed -|- Feed Info
Theme By: Nikkbu