[Login] or [Signup]
Login
Username:
Password:
[Signup]
[Recover Account]


Poll


You must be logged in to view polls



Torrent Details For "Tumhari Sulu (2017) - HD Rip [Mp4 - AAC3(2Ch)] - 1.39 GB "

Tumhari Sulu (2017) - HD Rip [Mp4 - AAC3(2Ch)] - 1.39 GB

Download this torrent | Magnet Download
Health:
Seeds: 52
Leechers: 0
Completed: 113 
Last Checked: 14-01-2018 01:40:23
External Torrent
Update Stats
Download Magnet


Poster


iMDB
Imdb Picture Title: Tumhari Sulu
Year: 2017
Runtime: 150 minutes
Votes: 43
Rating: 7.9/10
Language: Hindi
Country: India
All Genres: Comedy, Drama
Plot Outline: Vidya Balan (Sulochana a.k.a. Sulu) essays the role of a beautiful, enthusiastic and happy-go-lucky Mumbai housewife whose routine life changes when she unexpectedly lands herself with the ...
Director: Suresh Triveni
Writing By: Suresh Triveni,
Produced By: Vicky Bhatia,Hanif Chunawala,Deepika Gandhi,Tanuj Garg,Akshiti Goleria,Atul Kasbekar,Bhushan Kumar,Krishan Kumar,Shanti Sivaram Maini,
Cast:
Vidya Balan as Sulochana / Sulu
Neha Dhupia as Maria
Manav Kaul as Ashok
Vijay Maurya as Pankaj
Santanu Ghatak as Sanjay / Music Composer
Trupti Khamkar as Lady Driver
Malishka Mendonsa as RJ Albeli Anjali
Sindhu Shekharan as Aradhana
Uday Lagoo as Sulu's Father
Abhishek Sharma as Pranav
Trailers:
Official 'Tumhari Sulu' Trailer
Tumhari Sulu Official Teaser


Watch-Free-HD     Download

Details
Name:Tumhari Sulu (2017) - HD Rip [Mp4 - AAC3(2Ch)] - 1.39 GB
Description:
 Tumhari Sulu (2017) - HD Rip
[Mp4 - AAC3(2Ch)] - 1.39 GB  
 





General
Format                                   : MPEG-4
Format profile                           : Base Media / Version 2
File size                                : 1.39 GiB
Duration                                 : 2 h 37 min

Video
ID                                       : 2
Format                                   : AVC
Format/Info                              : Advanced Video Codec
Format profile                           : [email protected]
Format settings                          : CABAC / 5 Ref Frames
Format settings, CABAC                   : Yes
Format settings, RefFrames               : 5 frames
Codec ID                                 : avc1
Codec ID/Info                            : Advanced Video Coding
Duration                                 : 2 h 37 min
Bit rate mode                            : Variable
Bit rate                                 : 1 150 kb/s
Maximum bit rate                         : 8 200 kb/s
Width                                    : 720 pixels
Height                                   : 576 pixels
Display aspect ratio                     : 16:9
Frame rate mode                          : Constant
Frame rate                               : 25.000 FPS
Standard                                 : PAL
Color space                              : YUV
Chroma subsampling                       : 4:2:0
Bit depth                                : 8 bits
Scan type                                : Progressive
Bits/(Pixel*Frame)                       : 0.111
Stream size                              : 1.25 GiB (90%)

Audio
ID                                       : 1
Format                                   : AAC
Format/Info                              : Advanced Audio Codec
Format profile                           : LC
Codec ID                                 : mp4a-40-2
Duration                                 : 2 h 37 min
Bit rate mode                            : Variable
Bit rate                                 : 125 kb/s
Maximum bit rate                         : 576 kb/s
Channel(s)                               : 2 channels
Channel positions                        : Front: L R
Sampling rate                            : 48.0 kHz
Stream size                              : 141 MiB (10%)

Thumbnail




Category:Movies > HDRips
Lang:Hindi
Total Size:1.39 GB
Info Hash:8449bfb450211e27dd829362f645b2a52730b58d
Added By:Pherarim
Date Added:12-01-2018 12:00:11
Views:483
Hits:55

Download Torrent

Ratings:Not Yet Rated (Log in to rate it)

  


Tracker:
udp://9.rarbg.me:2710/announce


File List: 


Comments

No comments still posted

Powered by 10 Hamsters v2-svn -|- Page Generated In 2.196329 secs.
-|- RSS Feed -|- Feed Info
Theme By: Nikkbu