[Login] or [Signup]
Login
Username:
Password:
[Signup]
[Recover Account]


Poll


You must be logged in to view polls



Torrent Details For "Bank Chor 2017 720p Esub HD Hindi GOPISAHI"

Bank Chor 2017 720p Esub HD Hindi GOPISAHI

Download this torrent | Magnet Download
Health:
Seeds: 0
Leechers: 0
Completed:
Last Checked: 12-01-2018 12:05:43
External Torrent
Update Stats
Download Magnet


Poster


iMDB
Imdb Picture Title: Bank Chor
Year: 2017
Runtime: 120 minutes
Votes: 35
Rating: 8.0/10
Language: Hindi
Country: India
All Genres: Comedy, Thriller
Plot Outline: A comic-caper, that tells the story of 3 morons trying to rob a bank who pick the worst day possible when everything that can go wrong, goes wrong and how they're inadvertently caught in the crossfire.
Tagline: A haathi, a ghoda & a baba walk into a bank... (An elephant, a horse & a priest walk into a bank...)
Director: Bumpy
Writing By: Baljeet Singh Marwah,Baljeet Singh Marwah,Baljeet Singh Marwah,Ishita Moitra,
Produced By: Aditya Chopra,Ashish Patil,Rajat Kanti Sarkar,Aashish Singh,Nikhil Taneja,
Plot:

Introducing the worst Bank Chor EVER: Champak Chandrakant Chiplunkar, a simple Marathi manoos played by Riteish Deshmukh who picks the worst day possible to rob a bank. To make matters worse, he recruits 2 idiots from Delhi who've never even picked a pocket in their lives. Now top that off with the craziest bunch of hostages including a high-strung housewife, a hyper chef, a possibly undercover cop - and Baba Sehgal. How could it be worse, right? Wrong. Enter tough as nails supercop, CBI officer Amjad Khan played by Vivek Anand Oberoi, who shoots first and interrogates later. And a mad media circus outside led by fashion journo turned crime reporter Gayatri Ganguly aka Gaga played by Rhea Chakraborty. And you know the Bankchors are up for the worst day of their lives. Yet. The film promises to be a crazy roller-coaster ride with thrills, chills and certainly lots of spills.

- Written by Official Source

A comic-caper, that tells the story of 3 morons trying to rob a bank who pick the worst day possible when everything that can go wrong, goes wrong and how they're inadvertently caught in the crossfire.

- Written by Anonymous
Cast:
Riteish Deshmukh as Champak Chandrakant Chiplunkar
Vivek Oberoi as Amjad Khan
Rhea Chakraborty as Gayatri Ganguly
Sahil Vaid as Jugnu
Bhuvan Arora as Gulab
Vikram Thapa as Genda


Watch-Free-HD     Download

Details
Name:Bank Chor 2017 720p Esub HD Hindi GOPISAHI
Description:

Format                         : Matroska
Format version                 : Version 4 / Version 2
File size                      : 507 MiB
Duration                       : 2 h 0 min
Overall bit rate               : 589 kb/s
Movie name                     : Bank Chor 2017

Video
Format                         : AVC
Codec ID                       : V_MPEG4/ISO/AVC
Duration                       : 2 h 0 min
Bit rate                       : 500 kb/s
Width                          : 1 280 pixels
Height                         : 532 pixels
Display aspect ratio           : 2.40:1
Frame rate mode                : Constant
Frame rate                     : 23.976 (24000/1001) FPS
Stream size                    : 430 MiB (85%)
Writing library                : x264

Audio
Format                         : AAC
Duration                       : 2 h 0 min
Bit rate                       : 86.9 kb/s
Channel(s)                     : 6 channels
Channel positions              : Front: L C R, Side: L R, LFE
Sampling rate                  : 44.1 kHz
Frame rate                     : 43.066 FPS (1024 SPF)
Stream size                    : 74.8 MiB (15%)
Language                       : Hindi

Text
Language                       : English

Category:Movies > Bollywood
Lang:Hindi
Total Size:506.68 MB
Info Hash:bcfbcebaa297b6509287a1c1317bb22ccd14cc91
Added By:gopisahi
Date Added:12-01-2018 12:05:43
Views:385
Hits:51

Download Torrent

Ratings:Not Yet Rated (Log in to rate it)


Tracker:
http://ipv4.tracker.harry.lu/announce

This Torrent also has backup trackers
URLSeedersLeechersCompleted
http://ipv4.tracker.harry.lu/announce000
http://ipv4.tracker.harry.lu:80/announce000
http://163.172.180.68:80/announce000
http://t.nyaatracker.com/announce000
http://tracker.devil-torrents.pl:80/announce000
http://tracker.devil-torrents.pl/announce000
http://open.kickasstracker.com/announce000
http://163.172.180.68/announce000
http://t.nyaatracker.com:80/announce000
http://retracker.mgts.by:80/announce000
http://45.33.11.224/announce000
http://tracker.torrentyorg.pl:80/announce000
http://pt.lax.mx:80/announce000


File List: 


Comments

No comments still posted

Powered by 10 Hamsters v2-svn -|- Page Generated In 0.252010 secs.
-|- RSS FEED
Theme By: Nikkbu