[Login] or [Signup]
Login
Username:
Password:
[Signup]
[Recover Account]


Poll


You must be logged in to view polls



Torrent Details For "District 9 2009 1080p BluRay x264 Dual Audio [Hindi DD 5.1 - English 2.0] ESub"

District 9 2009 1080p BluRay x264 Dual Audio [Hindi DD 5.1 - English 2.0] ESub

Download this torrent | Magnet Download
Health:
Seeds: 88
Leechers: 90
Completed: 582 
Last Checked: 13-01-2018 19:54:04
External Torrent
Update Stats
Download Magnet


Poster
No poster


Watch-Free-HD     Download

Details
Name:District 9 2009 1080p BluRay x264 Dual Audio [Hindi DD 5.1 - English 2.0] ESub
Description:

 

General
Format                      : Matroska
Format version              : Version 4 / Version 2
File size                   : 1.79 GiB
Duration                    : 1 h 52 min
Overall bit rate            : 2 284 kb/s

Video
ID                          : 1
Format                      : AVC
Format/Info                 : Advanced Video Codec
Format profile              : [email protected]
Format settings             : CABAC / 4 Ref Frames
Format settings, CABAC      : Yes
Format settings, ReFrames   : 4 frames
Codec ID                    : V_MPEG4/ISO/AVC
Duration                    : 1 h 52 min
Bit rate                    : 1 997 kb/s
Width                       : 1 920 pixels
Height                      : 1 038 pixels
Display aspect ratio        : 1.85:1
Frame rate mode             : Constant
Frame rate                  : 23.976 (24000/1001) FPS
Original frame rate         : 23.976 (23976/1000) FPS
Color space                 : YUV
Chroma subsampling          : 4:2:0
Bit depth                   : 8 bits
Scan type                   : Progressive
Bits/(Pixel*Frame)          : 0.042
Stream size                 : 1.57 GiB (87%)
Writing library             : x264 core 135 r2 f0c1c53
Default                     : Yes
Forced                      : No

Audio #1
ID                          : 2
Format                      : AC-3
Format/Info                 : Audio Coding 3
Codec ID                    : A_AC3
Duration                    : 1 h 52 min
Bit rate mode               : Constant
Bit rate                    : 192 kb/s
Channel(s)                  : 6 channels
Channel positions           : Front: L C R, Side: L R, LFE
Sampling rate               : 48.0 kHz
Frame rate                  : 31.250 FPS (1536 SPF)
Bit depth                   : 16 bits
Compression mode            : Lossy
Stream size                 : 154 MiB (8%)
Language                    : Hindi
Service kind                : Complete Main
Default                     : Yes
Forced                      : No

Audio #2
ID                          : 3
Format                      : AAC
Format/Info                 : Advanced Audio Codec
Format profile              : LC
Codec ID                    : A_AAC-2
Duration                    : 1 h 52 min
Bit rate                    : 93.6 kb/s
Channel(s)                  : 2 channels
Channel positions           : Front: L R
Sampling rate               : 48.0 kHz
Frame rate                  : 46.875 FPS (1024 SPF)
Compression mode            : Lossy
Stream size                 : 75.2 MiB (4%)
Language                    : English
Default                     : No
Forced                      : No

Text
ID                          : 4
Format                      : UTF-8
Codec ID                    : S_TEXT/UTF8
Codec ID/Info               : UTF-8 Plain Text
Duration                    : 1 h 43 min
Bit rate                    : 69 b/s
Count of elements           : 1426
Stream size                 : 53.1 KiB (0%)
Default                     : Yes
Forced                      : No





 http://pichub.site/image/cINN
 http://pichub.site/image/cO1D
 http://pichub.site/image/cSOZ
 http://pichub.site/image/cDBg
 http://pichub.site/image/cEPI
 http://pichub.site/image/c7fX
 http://pichub.site/image/cVh8

Category:Movies > Hollywood Dub
Lang:Hindi
Total Size:1.79 GB
Info Hash:ea658b163b72d7314f37623253c8d0f2386c27fe
Added By:Freaky
Date Added:12-01-2018 12:49:11
Views:884
Hits:161

Download Torrent

Ratings:Not Yet Rated (Log in to rate it)


Tracker:
http://ipv4.tracker.harry.lu/announce

This Torrent also has backup trackers
URLSeedersLeechersCompleted
http://ipv4.tracker.harry.lu/announce9593519
http://ipv4.tracker.harry.lu:80/announce9593519
http://tracker.electro-torrent.pl/announce000
http://tracker.electro-torrent.pl:80/announce000
http://retracker.mgts.by:80/announce000
http://pt.lax.mx:80/announce000
http://tracker.torrentyorg.pl:80/announce28660
http://163.172.180.68/announce9592519
http://82.209.230.66/announce6356112
http://107.174.238.55:80/announce000
http://t.nyaatracker.com/announce307622
http://t.nyaatracker.com:80/announce000


File List: 


Comments

No comments still posted

Powered by 10 Hamsters v2-svn -|- Page Generated In 0.039045 secs.
-|- RSS Feed -|- Feed Info
Theme By: Nikkbu