[Login] or [Signup]
Login
Username:
Password:
[Signup]
[Recover Account]


Poll


You must be logged in to view polls



Torrent Details For "Jumanji Welcome To The Jungle HDTS Dual Audio Eng-Hin (Clear Cam) ESubs x264 Aac By Sam"

Jumanji Welcome To The Jungle HDTS Dual Audio Eng-Hin (Clear Cam) ESubs x264 Aac By Sam

Download this torrent | Magnet Download
Health:
Seeds: 32
Leechers: 40
Completed: 6,803 
Last Checked: 29-01-2018 13:39:40
External Torrent
Update Stats
Download Magnet


Poster


iMDB
Imdb Picture Title: Jumanji: Welcome to the Jungle
Year: 2017
Runtime: 119 minutes
Votes: 7900
Rating: 7.1/10
Language: English
Country: USA
All Genres: Action, Adventure, Comedy, Fantasy
Plot Outline: Four teenagers discover an old video game console and are literally drawn into the game's jungle setting, becoming the adult avatars they choose.
Tagline: The game has evolved.
Director: Jake Kasdan
Writing By: Chris McKenna,Erik Sommers,Scott Rosenberg,Jeff Pinkner,Chris McKenna,Chris Van Allsburg,
Produced By: Ted Field,Dany Garcia,Hiram Garcia,David B. Householter,Dwayne Johnson,Jake Kasdan,Melvin Mar,William Teitler,Matt Tolmach,Mike Weber,
Music: Henry Jackman
Cast:
Dwayne Johnson as Spencer
Kevin Hart as Fridge
Jack Black as Bethany
Karen Gillan as Martha
Rhys Darby as Nigel
Bobby Cannavale as Van Pelt
Nick Jonas as Alex
Alex Wolff as Young Spencer
Ser'Darius Blain as Young Fridge
Madison Iseman as Young Bethany
Trailers:
Official Trailer #2
Official Trailer


Watch-Free-HD     Download

Details
Name:Jumanji Welcome To The Jungle HDTS Dual Audio Eng-Hin (Clear Cam) ESubs x264 Aac By Sam
Description:
Source                      : Over Net
Format                      : Matroska
Format version              : Version 4 / Version 2
File size                   : 904 MiB
Duration                    : 1 h 50 min
Overall bit rate            : 1 148 kb/s
Movie name                  : Jumanji Welcome To The Jungle HDTS Dual Audio Eng-Hin (Clear Cam) ESubs x264 Aac By Sam
Encoded date                : UTC 2018-01-12 13:38:32
Writing application         : mkvmerge v8.1.0 ('Psychedelic Postcard') 32bit
Writing library             : libebml v1.3.1 + libmatroska v1.4.2

Video
ID                          : 1
Format                      : AVC
Format/Info                 : Advanced Video Codec
Format profile              : [email protected]
Format settings, CABAC      : Yes
Format settings, ReFrames   : 8 frames
Codec ID                    : V_MPEG4/ISO/AVC
Duration                    : 1 h 50 min
Bit rate                    : 1 017 kb/s
Width                       : 1 072 pixels
Height                      : 448 pixels
Display aspect ratio        : 2.40:1
Frame rate mode             : Constant
Frame rate                  : 30.000 FPS
Color space                 : YUV
Chroma subsampling          : 4:2:0
Bit depth                   : 8 bits
Scan type                   : Progressive
Bits/(Pixel*Frame)          : 0.071
Stream size                 : 801 MiB (89%)
Writing library             : x264 core 148 r2708 86b7198
Default                     : Yes
Forced                      : No
Color range                 : Limited
Color primaries             : BT.709
Transfer characteristics    : BT.709
Matrix coefficients         : BT.709

Audio #1
ID                          : 2
Format                      : AAC
Format/Info                 : Advanced Audio Codec
Format profile              : LC
Codec ID                    : A_AAC
Duration                    : 1 h 50 min
Bit rate                    : 64.0 kb/s
Channel(s)                  : 2 channels
Channel positions           : Front: L R
Sampling rate               : 44.1 kHz
Frame rate                  : 43.066 FPS (1024 spf)
Compression mode            : Lossy
Stream size                 : 50.4 MiB (6%)
Language                    : Hindi
Default                     : Yes
Forced                      : Yes

Audio #2
ID                          : 3
Format                      : AAC
Format/Info                 : Advanced Audio Codec
Format profile              : HE-AAC / LC
Codec ID                    : A_AAC
Duration                    : 1 h 50 min
Bit rate                    : 64.0 kb/s
Channel(s)                  : 2 channels
Channel positions           : Front: L R
Sampling rate               : 44.1 kHz / 22.05 kHz
Frame rate                  : 21.533 FPS (1024 spf)
Compression mode            : Lossy
Delay relative to video     : 33 ms
Stream size                 : 50.4 MiB (6%)
Language                    : English
Default                     : No
Forced                      : No

Text
ID                          : 4
Format                      : UTF-8
Codec ID                    : S_TEXT/UTF8
Codec ID/Info               : UTF-8 Plain Text
Duration                    : 1 h 47 min
Bit rate                    : 64 b/s
Count of elements           : 1400
Stream size                 : 50.5 KiB (0%)
Language                    : English
Default                     : Yes
Forced                      : Yes

Screenshots:











Give Proper Credit To Olddilli Where Ever You Release

I Seed only 12 o clock in night Remain in morning after 12 o clock



Category:Movies > Hollywood Dub
Lang:Hindi
Total Size:904.32 MB
Info Hash:527bb147fb4a0f72f2fc75c1076063bae4a7416b
Added By:olddilli
Date Added:12-01-2018 13:46:00
Views:3,553
Hits:794

Download Torrent

Ratings:Not Yet Rated (Log in to rate it)


Tracker:
udp://tracker.coppersurfer.tk:6969/announce

This Torrent also has backup trackers
URLSeedersLeechersCompleted
http://ipv4.tracker.harry.lu/announce13431
http://ipv4.tracker.harry.lu:80/announce13431
http://163.172.180.68:80/announce13431
http://t.nyaatracker.com/announce120
http://tracker.devil-torrents.pl:80/announce000
http://tracker.devil-torrents.pl/announce000
http://open.kickasstracker.com/announce380
http://163.172.180.68/announce13431
http://t.nyaatracker.com:80/announce120
http://retracker.mgts.by:80/announce1443
http://45.33.11.224/announce602
http://tracker.torrentyorg.pl:80/announce240
http://pt.lax.mx:80/announce000


File List: 


Comments

No comments still posted

Powered by 10 Hamsters v2-svn -|- Page Generated In 7.533518 secs.
-|- RSS FEED
Theme By: Nikkbu