[Login] or [Signup]
Login
Username:
Password:
[Signup]
[Recover Account]


Poll


You must be logged in to view polls



Torrent Details For "1921 2018 Hindi Pre-DVDRip x264 AAC [ HDSector.to ] { TaRa }.mkv"

1921 2018 Hindi Pre-DVDRip x264 AAC [ HDSector.to ] { TaRa }.mkv

Download this torrent | Magnet Download
Health:
Seeds: 440
Leechers: 62
Completed: 4,349 
Last Checked: 19-01-2018 09:51:41
External Torrent
Update Stats
Download Magnet


Poster


iMDB
Imdb Picture Title: 1921
Year: 2018
Votes: 14
Rating: 5.4/10
Language: Hindi
Country: India
All Genres: Horror
Plot Outline: A couple try to protect their dark past and secrets in order to save themselves from future.
Director: Vikram Bhatt
Writing By: Vikram Bhatt,Esha Desai,Tanya Pathak,
Produced By: Jason Ash,Vikram Bhatt,Vikrant Chopra,Mohaan Nadaar,
Music: Harish Sagane
Cast:
Zarine Khan as Rose
Karan Kundra as Ayush
Manjit Singh as Anthony / Man in Opera Crowd
Vikram Bhatt as
Rachel Shaw as Emma
Jazz Gee as Mr. Astana
Farida Mughal Singh as Homeless Lady
Sonnia Armstrong as Lily Lopez
Michael Walker as Police Constable
Mark Williams as Doctor


Watch-Free-HD     Download

Details
Name:1921 2018 Hindi Pre-DVDRip x264 AAC [ HDSector.to ] { TaRa }.mkv
Description:

1921 2018 Hindi Pre-DVDRip x264 AAC [ HDSector.to ] { TaRa }.mkv
 

===================================================================
General
Complete name               : 1921 2018 Hindi Pre-DVDRip x264 AAC [ HDSector.to ] { TaRa }.mkv
Format                      : Matroska
Format version              : Version 4 / Version 2
File size                   : 698 MiB
Duration                    : 2 h 14 min
Overall bit rate            : 723 kb/s
===================================================================
Video
ID                          : 1
Format                      : AVC
Format/Info                 : Advanced Video Codec
Format profile              : [email protected]
Format settings, CABAC      : Yes
Format settings, ReFrames   : 4 frames
Codec ID                    : V_MPEG4/ISO/AVC
Duration                    : 2 h 14 min
Bit rate                    : 594 kb/s
Width                       : 720 pixels
Height                      : 320 pixels
Display aspect ratio        : 2.25:1
Frame rate mode             : Constant
Frame rate                  : 30.000 FPS
Color space                 : YUV
Chroma subsampling          : 4:2:0
Bit depth                   : 8 bits
Scan type                   : Progressive
Bits/(Pixel*Frame)          : 0.086
Stream size                 : 572 MiB (82%)
Title                       : HDSector.to
Writing library             : x264 core 112
Language                    : Hindi
Default                     : Yes
Forced                      : No
===================================================================
Audio
ID                          : 2
Format                      : AAC
Format/Info                 : Advanced Audio Codec
Format profile              : LC
Codec ID                    : A_AAC
Duration                    : 2 h 14 min
Bit rate                    : 128 kb/s
Channel(s)                  : 2 channels
Channel positions           : Front: L R
Sampling rate               : 44.1 kHz
Frame rate                  : 43.066 FPS (1024 spf)
Compression mode            : Lossy
Stream size                 : 123 MiB (18%)
Title                       : HDSector.to
Language                    : Hindi
Default                     : Yes
Forced                      : No
===================================================================


 
 
 
 
 
 
 
 
 
 
 










 


Category:Movies > Bollywood
Lang:Hindi
Total Size:697.80 MB
Info Hash:1c72f3d7b3be63acbeed9bccc5508d36b990c6bb
Added By:SkTaRa
Date Added:13-01-2018 07:05:34
Views:4,965
Hits:354

Download Torrent

Ratings:Not Yet Rated (Log in to rate it)

  


Tracker:
http://ipv4.tracker.harry.lu/announce

This Torrent also has backup trackers
URLSeedersLeechersCompleted
http://ipv4.tracker.harry.lu/announce126247407
http://ipv4.tracker.harry.lu:80/announce126247407
http://tracker.electro-torrent.pl/announce000
http://tracker.electro-torrent.pl:80/announce000
http://retracker.mgts.by:80/announce7534672
http://pt.lax.mx:80/announce000
http://tracker.torrentyorg.pl:80/announce92190
http://163.172.180.68/announce126247407
http://82.209.230.66/announce7534672
http://107.174.238.55:80/announce000


File List: 


Comments

No comments still posted

Powered by 10 Hamsters v2-svn -|- Page Generated In 2.806359 secs.
-|- RSS FEED
Theme By: Nikkbu