[Login] or [Signup]
Login
Username:
Password:
[Signup]
[Recover Account]


Poll


You must be logged in to view polls



Torrent Details For "Tumhari Sulu (2017) - 2CD - HD Rip[x264 - AC3(5.1Ch)]"

Tumhari Sulu (2017) - 2CD - HD Rip[x264 - AC3(5.1Ch)]

Download this torrent | Magnet Download
Health:
Seeds: 44
Leechers: 0
Completed: 62 
Last Checked: 14-01-2018 01:39:21
External Torrent
Update Stats
Download Magnet


Poster


iMDB
Imdb Picture Title: Tumhari Sulu
Year: 2017
Runtime: 150 minutes
Votes: 43
Rating: 7.9/10
Language: Hindi
Country: India
All Genres: Comedy, Drama
Plot Outline: Vidya Balan (Sulochana a.k.a. Sulu) essays the role of a beautiful, enthusiastic and happy-go-lucky Mumbai housewife whose routine life changes when she unexpectedly lands herself with the ...
Director: Suresh Triveni
Writing By: Suresh Triveni,
Produced By: Vicky Bhatia,Hanif Chunawala,Deepika Gandhi,Tanuj Garg,Akshiti Goleria,Atul Kasbekar,Bhushan Kumar,Krishan Kumar,Shanti Sivaram Maini,
Cast:
Vidya Balan as Sulochana / Sulu
Neha Dhupia as Maria
Manav Kaul as Ashok
Vijay Maurya as Pankaj
Santanu Ghatak as Sanjay / Music Composer
Trupti Khamkar as Lady Driver
Malishka Mendonsa as RJ Albeli Anjali
Sindhu Shekharan as Aradhana
Uday Lagoo as Sulu's Father
Abhishek Sharma as Pranav
Trailers:
Official 'Tumhari Sulu' Trailer
Tumhari Sulu Official Teaser


Watch-Free-HD     Download

Details
Name:Tumhari Sulu (2017) - 2CD - HD Rip[x264 - AC3(5.1Ch)]
Description:
 Tumhari Sulu (2017) - 2CD -
HD Rip[x264 - AC3(5.1Ch)]  
 





General
Format                                   : Matroska
Format version                           : Version 2
File size                                : 1.40 GiB
Duration                                 : 2 h 46 min

Video
ID                                       : 1
Format                                   : AVC
Format/Info                              : Advanced Video Codec
Format profile                           : [email protected]
Format settings                          : CABAC / 4 Ref Frames
Format settings, CABAC                   : Yes
Format settings, RefFrames               : 4 frames
Codec ID                                 : V_MPEG4/ISO/AVC
Duration                                 : 2 h 46 min
Bit rate                                 : 1 013 kb/s
Width                                    : 720 pixels
Height                                   : 392 pixels
Display aspect ratio                     : 1.85:1
Frame rate mode                          : Constant
Frame rate                               : 25.000 FPS
Color space                              : YUV
Chroma subsampling                       : 4:2:0
Bit depth                                : 8 bits
Scan type                                : Progressive
Bits/(Pixel*Frame)                       : 0.144
Stream size                              : 1.18 GiB (84%)

Audio
ID                                       : 2
Format                                   : AC-3
Format/Info                              : Audio Coding 3
Codec ID                                 : A_AC3
Duration                                 : 2 h 46 min
Bit rate mode                            : Constant
Bit rate                                 : 192 kb/s
Channel(s)                               : 6 channels
Channel positions                        : Front: L C R, Side: L R, LFE
Sampling rate                            : 48.0 kHz
Stream size                              : 228 MiB (16%)


Thumbnail




Category:Movies > HDRips
Lang:Hindi
Total Size:1.40 GB
Info Hash:5a75ad3f78e0ad7a9ae0c15a264a8364ef20fbd1
Added By:Pherarim
Date Added:13-01-2018 12:52:50
Views:237
Hits:45

Download Torrent

Ratings:Not Yet Rated (Log in to rate it)

  


Tracker:
udp://9.rarbg.me:2710/announce


File List: 


Comments

No comments still posted

Powered by 10 Hamsters v2-svn -|- Page Generated In 1.119500 secs.
-|- RSS Feed -|- Feed Info
Theme By: Nikkbu