[Login] or [Signup]
Login
Username:
Password:
[Signup]
[Recover Account]


Poll


You must be logged in to view polls



Torrent Details For "Acts of Violence 2018 1080p WEB-DL DD 5.1 x264"

Acts of Violence 2018 1080p WEB-DL DD 5.1 x264

Download this torrent | Magnet Download
Health:
Seeds: 59
Leechers: 87
Completed: 38 
Last Checked: 13-01-2018 20:07:30
External Torrent
Update Stats
Download Magnet


Poster
No poster


Watch-Free-HD     Download

Details
Name:Acts of Violence 2018 1080p WEB-DL DD 5.1 x264
Description:

 


General
Format                      : Matroska
Format version              : Version 4 / Version 2
File size                   : 1.33 GiB
Duration                    : 1 h 26 min
Overall bit rate            : 2 189 kb/s

Video
ID                          : 1
Format                      : AVC
Format/Info                 : Advanced Video Codec
Format profile              : [email protected]
Format settings             : CABAC / 4 Ref Frames
Format settings, CABAC      : Yes
Format settings, ReFrames   : 4 frames
Codec ID                    : V_MPEG4/ISO/AVC
Duration                    : 1 h 26 min
Bit rate                    : 2 000 kb/s
Width                       : 1 908 pixels
Height                      : 792 pixels
Display aspect ratio        : 2.40:1
Frame rate mode             : Constant
Frame rate                  : 23.976 (24000/1001) FPS
Color space                 : YUV
Chroma subsampling          : 4:2:0
Bit depth                   : 8 bits
Scan type                   : Progressive
Bits/(Pixel*Frame)          : 0.055
Stream size                 : 1.17 GiB (88%)
Writing library             : x264 core 148 r2708 86b7198
Default                     : Yes
Forced                      : No

Audio
ID                          : 2
Format                      : AC-3
Format/Info                 : Audio Coding 3
Codec ID                    : A_AC3
Duration                    : 1 h 26 min
Bit rate mode               : Constant
Bit rate                    : 256 kb/s
Channel(s)                  : 6 channels
Channel positions           : Front: L C R, Side: L R, LFE
Sampling rate               : 48.0 kHz
Frame rate                  : 31.250 FPS (1536 SPF)
Bit depth                   : 16 bits
Compression mode            : Lossy
Stream size                 : 159 MiB (12%)
Language                    : English
Service kind                : Complete Main
Default                     : Yes
Forced                      : No




 http://pichub.site/image/kmYg
 http://pichub.site/image/kuzI
 http://pichub.site/image/kG2X
 http://pichub.site/image/kNj8
 http://pichub.site/image/kvwJ
 http://pichub.site/image/k0Th

Category:Movies > HDRips
Lang:English  English
Total Size:1.33 GB
Info Hash:39c3bf48ce99fbd75bcd524dc66938cf281002a3
Added By:Freaky
Date Added:13-01-2018 20:07:00
Views:98
Hits:24

Download Torrent

Ratings:Not Yet Rated (Log in to rate it)


Tracker:
http://ipv4.tracker.harry.lu/announce

This Torrent also has backup trackers
URLSeedersLeechersCompleted
http://ipv4.tracker.harry.lu/announce000
http://ipv4.tracker.harry.lu:80/announce000
http://open.kickasstracker.com/announce7130
https://open.kickasstracker.com:443/announce7130
http://82.209.230.66/announce551
http://163.172.180.68/announce000


File List: 


Comments

No comments still posted

Powered by 10 Hamsters v2-svn -|- Page Generated In 0.004562 secs.
-|- RSS Feed -|- Feed Info
Theme By: Nikkbu