[Login] or [Signup]
Login
Username:
Password:
[Signup]
[Recover Account]


Poll


You must be logged in to view polls



Torrent Details For "Napoleon (2017) Telugu 720p WEBHD x264 AAC - 700MB - MovCr"

Napoleon (2017) Telugu 720p WEBHD x264 AAC - 700MB - MovCr

Download this torrent | Magnet Download
Health:
Seeds: 0
Leechers: 0
Completed:
Last Checked: 14-01-2018 03:43:09
External Torrent
Update Stats
Download Magnet


Poster


Watch-Free-HD     Download

Details
Name:Napoleon (2017) Telugu 720p WEBHD x264 AAC - 700MB - MovCr
Description:
Napoleon (2017) Telugu 720p WEBHD x264 AAC - 700MB - MovCr

 
General
Complete name                            : www.movcr.com - Napoleon (2017) Telugu 720p WEBHD x264 AAC - 700MB - MovCr.mkv
Format                                   : Matroska
Format version                           : Version 4 / Version 2
File size                                : 636 MiB
Duration                                 : 1 h 55 min
Overall bit rate                         : 771 kb/s
Movie name                               : www.movcr.com
Encoded date                             : UTC 2018-01-14 17:34:21
Writing application                      : mkvmerge v17.0.0 ('Be Ur Friend') 64-bit
Writing library                          : libebml v1.3.5 + libmatroska v1.4.8

Video
ID                                       : 1
Format                                   : AVC
Format/Info                              : Advanced Video Codec
Format profile                           : [email protected]
Format settings                          : CABAC / 3 Ref Frames
Format settings, CABAC                   : Yes
Format settings, RefFrames               : 3 frames
Codec ID                                 : V_MPEG4/ISO/AVC
Duration                                 : 1 h 55 min
Bit rate                                 : 643 kb/s
Width                                    : 1 280 pixels
Height                                   : 720 pixels
Display aspect ratio                     : 16:9
Frame rate mode                          : Constant
Frame rate                               : 24.000 FPS
Color space                              : YUV
Chroma subsampling                       : 4:2:0
Bit depth                                : 8 bits
Scan type                                : Progressive
Bits/(Pixel*Frame)                       : 0.029
Stream size                              : 531 MiB (83%)
Title                                    : www.movcr.com
Default                                  : Yes
Forced                                   : No
Color range                              : Limited
Color primaries                          : BT.709
Transfer characteristics                 : BT.709
Matrix coefficients                      : BT.709

Audio
ID                                       : 2
Format                                   : AAC
Format/Info                              : Advanced Audio Codec
Format profile                           : LC
Codec ID                                 : A_AAC-2
Duration                                 : 1 h 55 min
Bit rate                                 : 126 kb/s
Channel(s)                               : 2 channels
Channel positions                        : Front: L R
Sampling rate                            : 44.1 kHz
Frame rate                               : 43.066 FPS (1024 SPF)
Compression mode                         : Lossy
Stream size                              : 104 MiB (16%)
Title                                    : www.movcr.com
Default                                  : Yes
Forced                                   : No


 
 
 
 
 
 
 
 
Category:Movies > WEB-HD
Lang:Telugu
Total Size:636.45 MB
Info Hash:1a4edd9beb9f27423113d5b82d798369bc037cf4
Added By:MAZE
Date Added:14-01-2018 03:43:09
Views:154
Hits:6

Download Torrent

Ratings:Not Yet Rated (Log in to rate it)


Tracker:
udp://tracker.openbittorrent.com:80/announce


File List: 


Comments

No comments still posted

Powered by 10 Hamsters v2-svn -|- Page Generated In 1.513409 secs.
-|- RSS Feed -|- Feed Info
Theme By: Nikkbu