[Login] or [Signup]
Login
Username:
Password:
[Signup]
[Recover Account]


Poll


You must be logged in to view polls



Torrent Details For "Tumhari Sulu 2017 720p Esub HD Hindi GOPISAHI"

Tumhari Sulu 2017 720p Esub HD Hindi GOPISAHI

Download this torrent | Magnet Download
Health:
Seeds: 59
Leechers: 36
Completed: 1,110 
Last Checked: 21-01-2018 14:45:25
External Torrent
Update Stats
Download Magnet


Poster


iMDB
Imdb Picture Title: Tumhari Sulu
Year: 2017
Runtime: 150 minutes
Votes: 43
Rating: 7.9/10
Language: Hindi
Country: India
All Genres: Comedy, Drama
Plot Outline: Vidya Balan (Sulochana a.k.a. Sulu) essays the role of a beautiful, enthusiastic and happy-go-lucky Mumbai housewife whose routine life changes when she unexpectedly lands herself with the ...
Director: Suresh Triveni
Writing By: Suresh Triveni,
Produced By: Vicky Bhatia,Hanif Chunawala,Deepika Gandhi,Tanuj Garg,Akshiti Goleria,Atul Kasbekar,Bhushan Kumar,Krishan Kumar,Shanti Sivaram Maini,
Cast:
Vidya Balan as Sulochana / Sulu
Neha Dhupia as Maria
Manav Kaul as Ashok
Vijay Maurya as Pankaj
Santanu Ghatak as Sanjay / Music Composer
Trupti Khamkar as Lady Driver
Malishka Mendonsa as RJ Albeli Anjali
Sindhu Shekharan as Aradhana
Uday Lagoo as Sulu's Father
Abhishek Sharma as Pranav
Trailers:
Official 'Tumhari Sulu' Trailer
Tumhari Sulu Official Teaser


Watch-Free-HD     Download

Details
Name:Tumhari Sulu 2017 720p Esub HD Hindi GOPISAHI
Description:

Format                         : Matroska
Format version                 : Version 4 / Version 2
File size                      : 558 MiB
Duration                       : 2 h 14 min
Overall bit rate               : 580 kb/s
Movie name                     : Tumhari Sulu 2017 GOPISAHI

Video
Format                         : AVC
Codec ID                       : V_MPEG4/ISO/AVC
Duration                       : 2 h 14 min
Bit rate                       : 500 kb/s
Width                          : 1 280 pixels
Height                         : 720 pixels
Display aspect ratio           : 16:9
Frame rate mode                : Constant
Frame rate                     : 25.000 FPS
Stream size                    : 481 MiB (86%)
Writing library                : x264
Language                       : Hindi

Audio
Format                         : AAC
Duration                       : 2 h 14 min
Bit rate                       : 77.3 kb/s
Channel(s)                     : 6 channels
Channel positions              : Front: L C R, Side: L R, LFE
Sampling rate                  : 44.1 kHz
Frame rate                     : 43.066 FPS (1024 SPF)
Stream size                    : 74.4 MiB (13%)
Language                       : Hindi

Text
Language                       : English


Category:Movies > Bollywood
Lang:Hindi
Total Size:557.53 MB
Info Hash:c61b5880c401a1d211393b6d7542cd225e7742b6
Added By:gopisahi
Date Added:14-01-2018 08:56:50
Views:905
Hits:200

Download Torrent

Ratings:Not Yet Rated (Log in to rate it)


Tracker:
http://ipv4.tracker.harry.lu/announce

This Torrent also has backup trackers
URLSeedersLeechersCompleted
http://ipv4.tracker.harry.lu/announce000
http://ipv4.tracker.harry.lu:80/announce000
http://163.172.180.68:80/announce000
http://t.nyaatracker.com/announce000
http://tracker.devil-torrents.pl:80/announce000
http://tracker.devil-torrents.pl/announce000
http://open.kickasstracker.com/announce2380
http://163.172.180.68/announce000
http://t.nyaatracker.com:80/announce000
http://retracker.mgts.by:80/announce000
http://45.33.11.224/announce000
http://tracker.torrentyorg.pl:80/announce18100
http://pt.lax.mx:80/announce000


File List: 


Comments

No comments still posted

Powered by 10 Hamsters v2-svn -|- Page Generated In 0.298873 secs.
-|- RSS Feed -|- Feed Info
Theme By: Nikkbu