[Login] or [Signup]
Login
Username:
Password:
[Signup]
[Recover Account]


Poll


You must be logged in to view polls



Torrent Details For "A Cure For Wellness 2016 720p BluRay x264 Dual Audio [Hindi DD 5.1 - English 2.0] ESub"

A Cure For Wellness 2016 720p BluRay x264 Dual Audio [Hindi DD 5.1 - English 2.0] ESub

Download this torrent | Magnet Download
Health:
Seeds: 1
Leechers: 14
Completed: 14,128 
Last Checked: 19-10-2018 19:10:16
External Torrent
Update Stats
Download Magnet


Poster
No poster


Watch-Free-HD     Download

Details
Name:A Cure For Wellness 2016 720p BluRay x264 Dual Audio [Hindi DD 5.1 - English 2.0] ESub
Description:

 


General
Format                      : Matroska
Format version              : Version 4 / Version 2
File size                   : 1.26 GiB
Duration                    : 2 h 26 min
Overall bit rate            : 1 231 kb/s

Video
ID                          : 1
Format                      : AVC
Format/Info                 : Advanced Video Codec
Format profile              : [email protected]
Format settings             : CABAC / 4 Ref Frames
Format settings, CABAC      : Yes
Format settings, ReFrames   : 4 frames
Codec ID                    : V_MPEG4/ISO/AVC
Duration                    : 2 h 26 min
Bit rate                    : 900 kb/s
Width                       : 1 280 pixels
Height                      : 714 pixels
Display aspect ratio        : 16:9
Original display aspect rat : 16:9
Frame rate mode             : Constant
Frame rate                  : 23.976 FPS
Color space                 : YUV
Chroma subsampling          : 4:2:0
Bit depth                   : 8 bits
Scan type                   : Progressive
Bits/(Pixel*Frame)          : 0.041
Stream size                 : 943 MiB (73%)
Writing library             : x264 core 148
Default                     : Yes
Forced                      : No

Audio #1
ID                          : 2
Format                      : AC-3
Format/Info                 : Audio Coding 3
Codec ID                    : A_AC3
Duration                    : 2 h 26 min
Bit rate mode               : Constant
Bit rate                    : 192 kb/s
Channel(s)                  : 6 channels
Channel positions           : Front: L C R, Side: L R, LFE
Sampling rate               : 48.0 kHz
Frame rate                  : 31.250 FPS (1536 SPF)
Bit depth                   : 16 bits
Compression mode            : Lossy
Delay relative to video     : -43 ms
Stream size                 : 201 MiB (16%)
Language                    : Hindi
Service kind                : Complete Main
Default                     : Yes
Forced                      : No

Audio #2
ID                          : 3
Format                      : AAC
Format/Info                 : Advanced Audio Codec
Format profile              : LC
Codec ID                    : A_AAC-2
Duration                    : 2 h 26 min
Bit rate                    : 137 kb/s
Channel(s)                  : 2 channels
Channel positions           : Front: L R
Sampling rate               : 48.0 kHz
Frame rate                  : 46.875 FPS (1024 SPF)
Compression mode            : Lossy
Delay relative to video     : -43 ms
Stream size                 : 143 MiB (11%)
Language                    : English
Default                     : No
Forced                      : No

Text
ID                          : 4
Format                      : UTF-8
Codec ID                    : S_TEXT/UTF8
Codec ID/Info               : UTF-8 Plain Text
Duration                    : 2 h 17 min
Bit rate                    : 34 b/s
Count of elements           : 1283
Stream size                 : 34.6 KiB (0%)
Default                     : Yes
Forced                      : No





 http://pichub.site/image/ieHu
 http://pichub.site/image/tfnB
 http://pichub.site/image/tYt6
 http://pichub.site/image/tMYY
 http://pichub.site/image/ta2t
 http://pichub.site/image/tIj4
 http://pichub.site/image/tRkp


Category:Movies > Hollywood Dub
Lang:Hindi
Total Size:1.26 GB
Info Hash:ef532aed21375f0a08bc8b961c5cb93a6e703ee9
Added By:Freaky
Date Added:20-01-2018 13:06:11
Views:1,502
Hits:253

Download Torrent

Ratings:Not Yet Rated (Log in to rate it)


Tracker:
udp://tracker.coppersurfer.tk:6969/announce


File List: 


Comments

No comments still posted

Powered by 10 Hamsters v2-svn -|- Page Generated In 0.004253 secs.
-|- RSS FEED
Theme By: Nikkbu