[Login] or [Signup]
Login
Username:
Password:
[Signup]
[Recover Account]


Poll


You must be logged in to view polls



Torrent Details For "Parmanu - The Story of Pokhran (2018) - 2CD - Pre DvDScrRip[x264 - AAC3(2Ch)]"

Parmanu - The Story of Pokhran (2018) - 2CD - Pre DvDScrRip[x264 - AAC3(2Ch)]

Download this torrent | Magnet Download
Health:
Seeds: 26
Leechers: 6
Completed: 342 
Last Checked: 26-05-2018 20:54:26
External Torrent
Update Stats
Download Magnet


Poster


iMDB
Imdb Picture Title: Parmanu: The Story of Pokhran
Year: 2018
Runtime: 129 minutes
Votes: 121
Rating: 8.9/10
Language: Hindi
Country: India
All Genres: Action, Drama, History, Thriller
Plot Outline: A look at India's first confidential nuclear test series at Pokhran lead by Dr. APJ Abdul Kalam, during the time of PM Atal Bihari Vajpayee's tenure.


Director: Abhishek Sharma
Writing By: Sanyukta Shaikh Chawla,Saiwyn Quadras,Abhishek Sharma,
Produced By: John Abraham,Nishant Pitti,Dharam Soni,
Music: Sandeep Chowta
Cast:
John Abraham as
Diana Penty as
Boman Irani as
Zachary Coffin as Stephen
Aditya Hitkari as
Abhiroy Singh as
Mark Bennington as Daniel
Arush Nand as Prahlad
Yogendra Tikku as
Rohan Khatri as Sardaar Driver


Watch-Free-HD     Download

Details
Name:Parmanu - The Story of Pokhran (2018) - 2CD - Pre DvDScrRip[x264 - AAC3(2Ch)]
Description:
Parmanu - The Story of Pokhran (2018) - 2CD -
Pre DvDScrRip[x264 - AAC3(2Ch)]





General
Format                                   : Matroska
Format version                           : Version 2
File size                                : 1.40 GiB
Duration                                 : 2 h 19 min

Video
ID                                       : 1
Format                                   : AVC
Format/Info                              : Advanced Video Codec
Format profile                           : [email protected]
Format settings                          : CABAC / 4 Ref Frames
Format settings, CABAC                   : Yes
Format settings, RefFrames               : 4 frames
Codec ID                                 : V_MPEG4/ISO/AVC
Duration                                 : 2 h 19 min
Bit rate                                 : 1 310 kb/s
Width                                    : 720 pixels
Height                                   : 312 pixels
Display aspect ratio                     : 2.35:1
Frame rate mode                          : Constant
Frame rate                               : 25.000 FPS
Color space                              : YUV
Chroma subsampling                       : 4:2:0
Bit depth                                : 8 bits
Scan type                                : Progressive
Bits/(Pixel*Frame)                       : 0.233
Stream size                              : 1.28 GiB (91%)

Audio
ID                                       : 2
Format                                   : AAC
Format/Info                              : Advanced Audio Codec
Format profile                           : LC
Codec ID                                 : A_AAC-2
Duration                                 : 2 h 19 min
Bit rate                                 : 128 kb/s
Channel(s)                               : 2 channels
Channel positions                        : Front: L R
Sampling rate                            : 48.0 kHz
Stream size                              : 128 MiB (9%)


Thumbnail




Category:Movies > Bollywood
Lang:Hindi
Total Size:1.40 GB
Info Hash:fc6d4beb24e5126ef14d6246a757c11e2aa76438
Added By:Pherarim
Date Added:25-05-2018 16:19:45
Views:930
Hits:131

Download Torrent

Ratings:Not Yet Rated (Log in to rate it)

  


Tracker:
udp://tracker.trackerfix.com:80/announce


File List: 


Comments

No comments still posted

Powered by 10 Hamsters v2-svn -|- Page Generated In 1.889680 secs.
-|- RSS FEED
Theme By: Nikkbu