[Login] or [Signup]
Login
Username:
Password:
[Signup]
[Recover Account]


Poll


You must be logged in to view polls



Torrent Details For "Parmanu The Story of Pokhran 2018 Hindi PRE x264 AAC { TaRa }.mkv"

Parmanu The Story of Pokhran 2018 Hindi PRE x264 AAC { TaRa }.mkv

Download this torrent | Magnet Download
Health:
Seeds: 474
Leechers: 237
Completed: 2,558 
Last Checked: 26-05-2018 19:32:26
External Torrent
Update Stats
Download Magnet


Poster


iMDB
Imdb Picture Title: Parmanu: The Story of Pokhran
Year: 2018
Runtime: 129 minutes
Votes: 121
Rating: 8.9/10
Language: Hindi
Country: India
All Genres: Action, Drama, History, Thriller
Plot Outline: A look at India's first confidential nuclear test series at Pokhran lead by Dr. APJ Abdul Kalam, during the time of PM Atal Bihari Vajpayee's tenure.


Director: Abhishek Sharma
Writing By: Sanyukta Shaikh Chawla,Saiwyn Quadras,Abhishek Sharma,
Produced By: John Abraham,Nishant Pitti,Dharam Soni,
Music: Sandeep Chowta
Cast:
John Abraham as
Diana Penty as
Boman Irani as
Zachary Coffin as Stephen
Aditya Hitkari as
Abhiroy Singh as
Mark Bennington as Daniel
Arush Nand as Prahlad
Yogendra Tikku as
Rohan Khatri as Sardaar Driver


Watch-Free-HD     Download

Details
Name:Parmanu The Story of Pokhran 2018 Hindi PRE x264 AAC { TaRa }.mkv
Description:

Parmanu The Story of Pokhran 2018 Hindi PRE x264 AAC { TaRa }.mkv
 

===================================================================
General
Complete name               : Parmanu The Story of Pokhran 2018 Hindi PRE x264 AAC { TaRa }.mkv
Format                      : Matroska
Format version              : Version 4 / Version 2
File size                   : 700 MiB
Duration                    : 1h 59mn
Overall bit rate            : 817 Kbps
===================================================================
Video
ID                          : 1
Format                      : AVC
Format/Info                 : Advanced Video Codec
Format profile              : [email protected]
Format settings, CABAC      : Yes
Format settings, ReFrames   : 4 frames
Codec ID                    : V_MPEG4/ISO/AVC
Duration                    : 1h 59mn
Bit rate                    : 706 Kbps
Width                       : 648 pixels
Height                      : 288 pixels
Display aspect ratio        : 2.25:1
Frame rate mode             : Constant
Frame rate                  : 25.000 fps
Color space                 : YUV
Chroma subsampling          : 4:2:0
Bit depth                   : 8 bits
Scan type                   : Progressive
Bits/(Pixel*Frame)          : 0.151
Stream size                 : 605 MiB (86%)
Title                       : .....::::: TaRa :::::....
Language                    : Hindi
Default                     : Yes
Forced                      : No
===================================================================
Audio
ID                          : 2
Format                      : AAC
Format/Info                 : Advanced Audio Codec
Format profile              : LC
Codec ID                    : A_AAC
Duration                    : 1h 59mn
Bit rate                    : 109 Kbps
Channel(s)                  : 2 channels
Channel positions           : Front: L R
Sampling rate               : 44.1 KHz
Frame rate                  : 43.066 fps (1024 spf)
Compression mode            : Lossy
Delay relative to video     : -80ms
Stream size                 : 93.2 MiB (13%)
Title                       : .....::::: TaRa :::::....
Language                    : Hindi
Default                     : Yes
Forced                      : No
===================================================================


 
 
 
 
 
 
 
 
 










 


Category:Movies > Bollywood
Lang:Hindi
Total Size:700.04 MB
Info Hash:56898bd37d9019d592f1be77181e41661705cd43
Added By:SkTaRa
Date Added:25-05-2018 18:57:14
Views:747
Hits:108

Download Torrent

Ratings:Not Yet Rated (Log in to rate it)

  


Tracker:
udp://tracker.coppersurfer.tk:6969/announce


File List: 


Comments

No comments still posted

Powered by 10 Hamsters v2-svn -|- Page Generated In 2.531798 secs.
-|- RSS FEED
Theme By: Nikkbu