[Login] or [Signup]
Login
Username:
Password:
[Signup]
[Recover Account]


Poll


You must be logged in to view polls



Torrent Details For "Absolutely Fabulous The Movie ( 2016 ) 720p HDRip Hindi Dubbed x264 AAC { TaRa }.mkv"

Absolutely Fabulous The Movie ( 2016 ) 720p HDRip Hindi Dubbed x264 AAC { TaRa }.mkv

Download this torrent | Magnet Download
Health:
Seeds: 0
Leechers: 0
Completed:
Last Checked: 18-11-2018 10:59:55
External Torrent
Update Stats
Download Magnet


Poster


Watch-Free-HD     Download

Details
Name:Absolutely Fabulous The Movie ( 2016 ) 720p HDRip Hindi Dubbed x264 AAC { TaRa }.mkv
Description:

Quote:

Absolutely Fabulous The Movie ( 2016 ) 720p HDRip Hindi Dubbed x264 AAC { TaRa }.mkv


===================================================================
General
Complete name               : Absolutely Fabulous The Movie ( 2016 ) 720p HDRip Hindi Dubbed x264 AAC { TaRa }.mkv
Format                      : Matroska
Format version              : Version 4 / Version 2
File size                   : 948 MiB
Duration                    : 1 h 30 min
Overall bit rate            : 1 460 kb/s
===================================================================
Video
ID                          : 1
Format                      : AVC
Format/Info                 : Advanced Video Codec
Format profile              : [email protected]
Format settings, CABAC      : Yes
Format settings, ReFrames   : 4 frames
Codec ID                    : V_MPEG4/ISO/AVC
Duration                    : 1 h 30 min
Bit rate                    : 1 152 kb/s
Width                       : 1 280 pixels
Height                      : 536 pixels
Display aspect ratio        : 2.40:1
Frame rate mode             : Variable
Frame rate                  : 23.976 FPS
Color space                 : YUV
Chroma subsampling          : 4:2:0
Bit depth                   : 8 bits
Scan type                   : Progressive
Bits/(Pixel*Frame)          : 0.070
Stream size                 : 737 MiB (78%)
Title                       : .....::::: TaRa :::::.....
Language                    : Hindi
Default                     : Yes
Forced                      : No
===================================================================
Audio
ID                          : 2
Format                      : AAC
Format/Info                 : Advanced Audio Codec
Format profile              : LC
Codec ID                    : A_AAC
Duration                    : 1 h 30 min
Bit rate                    : 322 kb/s
Channel(s)                  : 2 channels
Channel positions           : Front: L R
Sampling rate               : 48.0 kHz
Frame rate                  : 46.875 FPS (1024 spf)
Compression mode            : Lossy
Stream size                 : 209 MiB (22%)
Title                       : .....::::: TaRa :::::.....
Language                    : Hindi
Default                     : Yes
Forced                      : No
===================================================================






























Category:Movies > Hollywood Dub
Lang:Hindi
Total Size:947.66 MB
Info Hash:eee1714125426f1f123562435e24718273cc8e0c
Added By:SkTaRa
Date Added:27-03-2017 16:45:21
Views:1,823
Hits:144

Download Torrent

Ratings:Not Yet Rated (Log in to rate it)

  


Tracker:
udp://tracker.ccc.de:80/announce

This Torrent also has backup trackers
URLSeedersLeechersCompleted
http://tracker.dler.org:6969/announce000
http://ipv4.tracker.harry.lu:80/announce040


File List: 


Comments

No comments still posted

Powered by 10 Hamsters v2-svn -|- Page Generated In 4.889559 secs.
-|- RSS FEED
Theme By: Nikkbu