[Login] or [Signup]
Login
Username:
Password:
[Signup]
[Recover Account]


Poll


You must be logged in to view polls



Torrent Details For "The Punisher Season 1 1080P 6CH"

The Punisher Season 1 1080P 6CH

Download this torrent | Magnet Download
Health:
Seeds: 0
Leechers: 4
Completed:
Last Checked: 06-10-2018 04:17:30
External Torrent
Update Stats
Download Magnet


Poster


iMDB
Imdb Picture Title: The Punisher
Year: 2017
Runtime: 44 minutes
Votes: 28535
Rating: 9.1/10
Language: English
Country: USA
All Genres: Action, Adventure, Crime, Drama, Sci-Fi, Thriller
Plot Outline: After the murder of his family, Marine veteran Frank Castle became a vigilante known as "The Punisher" with only one goal in mind, to avenge them.
Director: Andy Goddard
Tom Shankland
Antonio Campos
Kevin Hooks
Marc Jobst
Jim O'Hanlon
Kari Skogland
Stephen Surjik
Dearbhla Walsh
Jeremy Webb
Jet Wilkinson
Writing By: Ross Andru,Gerry Conway,Ken Kristensen,Angela LaManna,Steve Lightfoot,John Romita Sr.,Felicia D. Henderson,Dario Scardapane,Christine Boylan,Michael Jones-Morales,Bruce Marshall Romans,
Produced By: Gail Barringer,Steve Lightfoot,Jeph Loeb,Joe Quesada,Michael Jones-Morales,Joseph White,
Music: Tyler Bates
Cast:
Jon Bernthal as Frank Castle 13 episodes, 2017
Amber Rose Revah as Dinah Madani 13 episodes, 2017
Ebon Moss-Bachrach as David Lieberman 12 episodes, 2017
Ben Barnes as Billy Russo 12 episodes, 2017
Jaime Ray Newman as Sarah Lieberman 9 episodes, 2017
Kobi Frumer as Zach Lieberman 9 episodes, 2017
Paul Schulze as Rawlins 8 episodes, 2017
Michael Nathanson as Sam Stein 8 episodes, 2017
Ripley Sobo as Leo Lieberman 8 episodes, 2017
Daniel Webber as Lewis Walcott 7 episodes, 2017
Trailers:
Official Trailer #2
Official Trailer
Teaser: Demolition


Watch-Free-HD     Download

Details
Name:The Punisher Season 1 1080P 6CH
Description:


General
Unique ID                                : 245593709922064346371129641138574289941 (0xB8C3A0C53617C6D58AC554B9472B6C15)
Complete name                            : Marvels.The.Punisher.S01E01.3AM.1080p.NF.WEB-DL.6CH.MkvCage.(AriaMovie).mkv
Format                                   : Matroska
Format version                           : Version 4 / Version 2
File size                                : 901 MiB
Duration                                 : 51 min 23 s
Overall bit rate                         : 2 451 kb/s
Encoded date                             : UTC 2017-11-18 05:26:35
Writing application                      : mkvmerge v16.0.0 ('Protest') 64-bit
Writing library                          : libebml v1.3.5 + libmatroska v1.4.8

Video
ID                                       : 1
Format                                   : AVC
Format/Info                              : Advanced Video Codec
Format profile                           : [email protected]
Format settings                          : CABAC / 4 Ref Frames
Format settings, CABAC                   : Yes
Format settings, RefFrames               : 4 frames
Codec ID                                 : V_MPEG4/ISO/AVC
Duration                                 : 51 min 23 s
Bit rate                                 : 2 258 kb/s
Width                                    : 1 920 pixels
Height                                   : 1 080 pixels
Display aspect ratio                     : 16:9
Frame rate mode                          : Constant
Frame rate                               : 23.976 (24000/1001) FPS
Color space                              : YUV
Chroma subsampling                       : 4:2:0
Bit depth                                : 8 bits
Scan type                                : Progressive
Bits/(Pixel*Frame)                       : 0.045
Stream size                              : 830 MiB (92%)
Writing library                          : x264 core 133 r2334 a3ac64b
Encoding settings                        : cabac=1 / ref=4 / deblock=1:-1:-1 / analyse=0x3:0x133 / me=umh / subme=10 / psy=1 / psy_rd=1.00:0.00 / mixed_ref=1 / me_range=24 / chroma_me=1 / trellis=2 / 8x8dct=1 / cqm=0 / deadzone=21,11 / fast_pskip=1 / chroma_qp_offset=-2 / threads=48 / lookahead_threads=5 / sliced_threads=0 / nr=0 / decimate=1 / interlaced=0 / bluray_compat=0 / constrained_intra=0 / bframes=6 / b_pyramid=2 / b_adapt=2 / b_bias=0 / direct=3 / weightb=1 / open_gop=0 / weightp=2 / keyint=240 / keyint_min=23 / scenecut=40 / intra_refresh=0 / rc_lookahead=60 / rc=2pass / mbtree=1 / bitrate=2258 / ratetol=1.0 / qcomp=0.60 / qpmin=10 / qpmax=51 / qpstep=4 / cplxblur=20.0 / qblur=0.5 / vbv_maxrate=62500 / vbv_bufsize=78125 / nal_hrd=none / ip_ratio=1.40 / aq=1:1.00
Default                                  : Yes
Forced                                   : No

Audio
ID                                       : 2
Format                                   : AAC
Format/Info                              : Advanced Audio Codec
Format profile                           : HE-AAC / LC
Format settings                          : Explicit
Codec ID                                 : A_AAC-2
Duration                                 : 51 min 23 s
Bit rate                                 : 192 kb/s
Channel(s)                               : 6 channels
Channel positions                        : Front: L C R, Side: L R, LFE
Sampling rate                            : 48.0 kHz / 24.0 kHz
Frame rate                               : 23.438 FPS (1024 SPF)
Compression mode                         : Lossy
Delay relative to video                  : 31 ms
Stream size                              : 70.5 MiB (8%)
Default                                  : Yes
Forced                                   : No

Text #1
ID                                       : 3
Format                                   : UTF-8
Codec ID                                 : S_TEXT/UTF8
Codec ID/Info                            : UTF-8 Plain Text
Duration                                 : 21 s 439 ms
Bit rate                                 : 83 b/s
Count of elements                        : 6
Stream size                              : 224 Bytes (0%)
Title                                    : Forced
Language                                 : English
Default                                  : No
Forced                                   : Yes

Text #2
ID                                       : 4
Format                                   : UTF-8
Codec ID                                 : S_TEXT/UTF8
Codec ID/Info                            : UTF-8 Plain Text
Duration                                 : 49 min 1 s
Bit rate                                 : 69 b/s
Count of elements                        : 730
Stream size                              : 24.9 KiB (0%)
Title                                    : SDH
Language                                 : English
Default                                  : Yes
Forced                                   : No

Text #3
ID                                       : 5
Format                                   : UTF-8
Codec ID                                 : S_TEXT/UTF8
Codec ID/Info                            : UTF-8 Plain Text
Duration                                 : 50 min 0 s
Bit rate                                 : 53 b/s
Count of elements                        : 552
Stream size                              : 19.5 KiB (0%)
Language                                 : German
Default                                  : No
Forced                                   : No

Text #4
ID                                       : 6
Format                                   : UTF-8
Codec ID                                 : S_TEXT/UTF8
Codec ID/Info                            : UTF-8 Plain Text
Duration                                 : 50 min 0 s
Bit rate                                 : 50 b/s
Count of elements                        : 582
Stream size                              : 18.6 KiB (0%)
Language                                 : Spanish
Default                                  : No
Forced                                   : No

Text #5
ID                                       : 7
Format                                   : UTF-8
Codec ID                                 : S_TEXT/UTF8
Codec ID/Info                            : UTF-8 Plain Text
Duration                                 : 50 min 5 s
Bit rate                                 : 53 b/s
Count of elements                        : 570
Stream size                              : 19.6 KiB (0%)
Language                                 : French
Default                                  : No
Forced                                   : No

Text #6
ID                                       : 8
Format                                   : UTF-8
Codec ID                                 : S_TEXT/UTF8
Codec ID/Info                            : UTF-8 Plain Text
Duration                                 : 49 min 58 s
Bit rate                                 : 46 b/s
Count of elements                        : 481
Stream size                              : 17.1 KiB (0%)
Language                                 : Dutch
Default                                  : No
Forced                                   : No






Category:TV > WEB-HD
Lang:English  English
Total Size:11.67 GB
Info Hash:ff7b3c5e8a40c9e9c1e2265b800bddba8312a46c
Added By:satan2000
Date Added:18-07-2018 12:44:43
Views:262
Hits:22

Download Torrent

Ratings:Not Yet Rated (Log in to rate it)


Tracker:
udp://tracker.coppersurfer.tk:6969/announce


File List: 


Comments

No comments still posted

Powered by 10 Hamsters v2-svn -|- Page Generated In 1.015657 secs.
-|- RSS FEED
Theme By: Nikkbu