[Login] or [Signup]
Login
Username:
Password:
[Signup]
[Recover Account]


Poll


You must be logged in to view polls



Torrent Details For "Neel Akasher Chadni (Bengali Movie ) - 2CD - HDTV Rip[x264 - AC3(5.1Ch)]"

Neel Akasher Chadni (Bengali Movie ) - 2CD - HDTV Rip[x264 - AC3(5.1Ch)]

Download this torrent | Magnet Download
Health:
Seeds: 0
Leechers: 25
Completed: 51 
Last Checked: 20-10-2018 10:12:43
External Torrent
Update Stats
Download Magnet


Poster


iMDB
Title: Neel Akasher Chadni
Year: 2009
Votes: 41
Rating: 6.1/10
Language: Bengali
Director: Sujit Guha

Produced By: Pijush Saha,
Music: Jeet Gannguli
Cast:
Jeet as
Koyel Mallick as
Anuradha Roy as
Jishu Sengupta as


Watch-Free-HD     Download

Details
Name:Neel Akasher Chadni (Bengali Movie ) - 2CD - HDTV Rip[x264 - AC3(5.1Ch)]
Description:
   Neel Akasher Chadni (Bengali Movie ) -
2CD - HDTV Rip[x264 - AC3(5.1Ch)].    
 





General
Format                                   : Matroska
Format version                           : Version 4
File size                                : 1.40 GiB
Duration                                 : 2 h 38 min

Video
ID                                       : 1
Format                                   : AVC
Format/Info                              : Advanced Video Codec
Format profile                           : [email protected]
Format settings                          : CABAC / 4 Ref Frames
Format settings, CABAC                   : Yes
Format settings, RefFrames               : 4 frames
Codec ID                                 : V_MPEG4/ISO/AVC
Duration                                 : 2 h 38 min
Bit rate                                 : 1 070 kb/s
Width                                    : 720 pixels
Height                                   : 304 pixels
Display aspect ratio                     : 2.35:1
Frame rate mode                          : Constant
Frame rate                               : 25.000 FPS
Color space                              : YUV
Chroma subsampling                       : 4:2:0
Bit depth                                : 8 bits
Scan type                                : Progressive
Bits/(Pixel*Frame)                       : 0.196
Stream size                              : 1.19 GiB (85%)

Audio
ID                                       : 2
Format                                   : AC-3
Format/Info                              : Audio Coding 3
Commercial name                          : Dolby Digital
Codec ID                                 : A_AC3
Duration                                 : 2 h 38 min
Bit rate mode                            : Constant
Bit rate                                 : 192 kb/s
Channel(s)                               : 6 channels
Channel layout                           : L R C LFE Ls Rs
Sampling rate                            : 48.0 kHz
Stream size                              : 218 MiB (15%)


 Thumbnail  




Category:Movies > Bengali
Lang:Bengali  Bengali
Total Size:1.40 GB
Info Hash:c2a0ed71ac5126c0dd81415a2c8770b30d8a2d47
Added By:CyberTron
Date Added:03-10-2018 02:57:36
Views:447
Hits:38

Download Torrent

Ratings:Not Yet Rated (Log in to rate it)

  


Tracker:
udp://tracker.trackerfix.com:80/announce


File List: 


Comments

No comments still posted

Powered by 10 Hamsters v2-svn -|- Page Generated In 1.050819 secs.
-|- RSS FEED
Theme By: Nikkbu